<?xml version="1.0" standalone="no"?>
<!DOCTYPE svg PUBLIC "-//W3C//DTD SVG 1.1//EN" "http://www.w3.org/Graphics/SVG/1.1/DTD/svg11.dtd" >
<svg>
<metadata>
Created by FontForge 20090622 at Fri Feb 14 21:49:21 2020
 By deploy user
Copyright &#194;&#169; 2009 Christian Schwartz, under exclusive license to Commercial Type, Inc.
</metadata>
<defs>
<font id="Graphik-Medium" horiz-adv-x="600" >
  <font-face 
    font-family="Graphik"
    font-weight="500"
    font-stretch="normal"
    units-per-em="1000"
    panose-1="2 11 6 3 3 2 2 6 2 3"
    ascent="821"
    descent="-179"
    x-height="523"
    cap-height="715"
    bbox="-235 -225 1134 1123"
    underline-thickness="50"
    underline-position="-50"
    unicode-range="U+0020-U+FB02"
  />
<missing-glyph horiz-adv-x="508" 
 />
    <glyph glyph-name="f_f" unicode="ff" horiz-adv-x="667" 
d="M93 0v432h-71v91h71v63q0 86 45.5 131.5t129.5 45.5q38 0 69 -10v-94q-28 10 -54 10q-69 0 -69 -77v-69h184v70q0 86 45.5 131.5t129.5 45.5q39 0 70 -10v-94q-25 9 -55 9q-69 0 -69 -77v-75h119v-91h-119v-432h-121v432h-184v-432h-121z" />
    <glyph glyph-name=".notdef" horiz-adv-x="508" 
 />
    <glyph glyph-name=".null" horiz-adv-x="0" 
 />
    <glyph glyph-name="nonmarkingreturn" horiz-adv-x="333" 
 />
    <glyph glyph-name="space" unicode=" " horiz-adv-x="238" 
 />
    <glyph glyph-name="exclam" unicode="!" horiz-adv-x="305" 
d="M152 -7q-33 0 -56.5 22.5t-23.5 54.5q0 33 23.5 55.5t56.5 22.5q34 0 57.5 -22.5t23.5 -55.5q0 -32 -23.5 -54.5t-57.5 -22.5zM104 215l-18 500h135l-19 -500h-98z" />
    <glyph glyph-name="quotedbl" unicode="&#x22;" horiz-adv-x="409" 
d="M70 458l-17 257h121l-17 -257h-87zM253 458l-18 257h121l-17 -257h-86z" />
    <glyph glyph-name="numbersign" unicode="#" horiz-adv-x="532" 
d="M259 99l24 167h-83l-24 -167h-89l24 167h-77v98h92l16 110h-82v95h96l22 146h88l-21 -146h83l22 146h89l-22 -146h81v-95h-95l-16 -110h85v-98h-100l-24 -167h-89zM231 474l-16 -110h83l16 110h-83z" />
    <glyph glyph-name="dollar" unicode="$" horiz-adv-x="635" 
d="M286 -135v126q-121 9 -181 70.5t-68 159.5h124q7 -57 33.5 -90.5t91.5 -41.5v225q-115 20 -170 67t-55 139q0 84 62 140t163 63v90h67v-91q98 -9 155 -60t66 -143h-118q-17 92 -103 106v-205q119 -19 176.5 -66t57.5 -143q0 -90 -63 -151.5t-171 -68.5v-126h-67zM464 199
q0 44 -23.5 67t-87.5 37v-214q51 7 81 36.5t30 73.5zM179 531q0 -42 22 -64.5t85 -35.5v197q-51 -6 -79 -32.5t-28 -64.5z" />
    <glyph glyph-name="percent" unicode="%" horiz-adv-x="801" 
d="M205 456q35 0 55.5 24.5t20.5 68.5q0 43 -20.5 68t-55.5 25q-36 0 -56.5 -24.5t-20.5 -68.5q0 -45 20.5 -69t56.5 -24zM204 375q-74 0 -124 49.5t-50 123.5t51 124t124 50t123 -49t50 -123q0 -75 -50 -125t-124 -50zM128 0l461 715h84l-460 -715h-85zM597 71
q35 0 55.5 24.5t20.5 68.5q0 43 -20.5 68t-55.5 25q-36 0 -56.5 -24.5t-20.5 -68.5q0 -45 20.5 -69t56.5 -24zM596 -10q-74 0 -123.5 49.5t-49.5 123.5t50.5 124t123.5 50t123.5 -49t50.5 -123q0 -75 -50.5 -125t-124.5 -50z" />
    <glyph glyph-name="ampersand" unicode="&#x26;" horiz-adv-x="716" 
d="M685 370l-117 -224l120 -146h-153l-60 73q-80 -82 -196 -82q-105 0 -170 55.5t-65 148.5q0 74 41.5 124.5t119.5 87.5q-56 74 -56 141q0 81 57 127t140 46q76 0 128 -42.5t52 -112.5q0 -118 -149 -182l126 -154l73 140h109zM293 91q70 0 120 59l-152 185
q-45 -23 -68 -51.5t-23 -75.5q0 -54 32.5 -85.5t90.5 -31.5zM267 547q0 -40 54 -105q51 24 73 51t22 68q0 31 -19.5 51t-50.5 20q-35 0 -57 -22t-22 -63z" />
    <glyph glyph-name="quotesingle" unicode="'" horiz-adv-x="229" 
d="M70 458l-17 257h123l-17 -257h-89z" />
    <glyph glyph-name="parenleft" unicode="(" horiz-adv-x="335" 
d="M213 -148q-166 197 -166 461t166 461h106q-152 -203 -152 -461t152 -461h-106z" />
    <glyph glyph-name="parenright" unicode=")" horiz-adv-x="335" 
d="M17 -146q151 204 151 461t-151 461h105q166 -197 166 -461t-166 -461h-105z" />
    <glyph glyph-name="asterisk" unicode="*" horiz-adv-x="429" 
d="M149 394l-77 55l85 102l-120 23l27 89l114 -50l-13 130h100l-13 -130l114 50l26 -89l-121 -23l85 -102l-76 -55l-67 118z" />
    <glyph glyph-name="plus" unicode="+" horiz-adv-x="539" 
d="M219 96v198h-182v94h182v198h101v-198h183v-94h-183v-198h-101z" />
    <glyph glyph-name="comma" unicode="," horiz-adv-x="292" 
d="M103 -123l-75 33l91 237l115 -46z" />
    <glyph glyph-name="hyphen" unicode="-" horiz-adv-x="353" 
d="M56 229v100h240v-100h-240z" />
    <glyph glyph-name="period" unicode="." horiz-adv-x="289" 
d="M144 -7q-33 0 -56 22.5t-23 55.5t23 56t56 23q34 0 57 -23t23 -56t-23 -55.5t-57 -22.5z" />
    <glyph glyph-name="slash" unicode="/" horiz-adv-x="415" 
d="M-6 -148l301 924h103l-302 -924h-102z" />
    <glyph glyph-name="zero" unicode="0" horiz-adv-x="701" 
d="M354 96q163 0 163 246v35q0 115 -43 179.5t-122 64.5q-81 0 -124 -63t-43 -182v-36q0 -120 44 -182t125 -62zM351 -10q-137 0 -218.5 94t-81.5 255v36q0 161 82 255.5t218 94.5q137 0 218 -93.5t81 -253.5v-36q0 -162 -80 -257t-219 -95z" />
    <glyph glyph-name="one" unicode="1" horiz-adv-x="419" 
d="M183 0v583l-151 -103v117l166 118h119v-715h-134z" />
    <glyph glyph-name="two" unicode="2" horiz-adv-x="578" 
d="M15 0v24l270 285q109 115 109 203q0 51 -28 80t-79 29q-111 0 -128 -142h-122q7 117 74 181.5t180 64.5q110 0 173 -57.5t63 -153.5q0 -121 -140 -256l-159 -155h304v-103h-517z" />
    <glyph glyph-name="three" unicode="3" horiz-adv-x="623" 
d="M304 -10q-125 0 -194.5 63t-74.5 168h121q6 -60 41 -95.5t104 -35.5q68 0 102 30.5t34 85.5q0 117 -129 117h-55v95h51q119 0 119 105q0 45 -28.5 73t-82.5 28q-56 0 -91.5 -31.5t-41.5 -86.5h-118q5 96 73 157.5t180 61.5q109 0 172.5 -55t63.5 -137q0 -112 -116 -156
q64 -15 101 -59.5t37 -113.5q0 -99 -72.5 -156.5t-195.5 -57.5z" />
    <glyph glyph-name="four" unicode="4" horiz-adv-x="641" 
d="M385 0v145h-354v47l316 523h167v-471h96v-99h-96v-145h-129zM173 244h214v370z" />
    <glyph glyph-name="five" unicode="5" horiz-adv-x="604" 
d="M291 -10q-121 0 -185 59t-70 156h124q9 -55 37.5 -83.5t92.5 -28.5q61 0 95 39t34 106q0 65 -35 103t-94 38q-95 0 -149 -62h-68l6 398h434v-105h-332l-1 -194q52 60 154 60q98 0 159 -64.5t61 -175.5q0 -112 -73 -179t-190 -67z" />
    <glyph glyph-name="six" unicode="6" horiz-adv-x="641" 
d="M331 -10q-147 0 -213.5 90.5t-66.5 244.5v17q0 181 82 282t214 101q99 0 159.5 -48t73.5 -141h-124q-10 43 -35.5 64.5t-74.5 21.5q-73 0 -116.5 -64t-46.5 -184q55 92 177 92q103 0 169 -64.5t66 -168.5q0 -109 -71.5 -176t-192.5 -67zM329 88q60 0 97 39t37 103
q0 65 -36.5 104.5t-97.5 39.5t-99.5 -38.5t-38.5 -97.5q0 -70 38 -110t100 -40z" />
    <glyph glyph-name="seven" unicode="7" horiz-adv-x="545" 
d="M132 0l230 607h-333v108h500v-16l-260 -699h-137z" />
    <glyph glyph-name="eight" unicode="8" horiz-adv-x="627" 
d="M314 -10q-113 0 -190.5 56t-77.5 156q0 66 36 113t98 69q-106 42 -106 149q0 87 71 139.5t169 52.5q100 0 169.5 -52t69.5 -138q0 -104 -106 -150q64 -23 98.5 -68.5t34.5 -110.5q0 -102 -76 -159t-190 -57zM314 90q59 0 96 33t37 91q0 57 -37 89.5t-95 32.5
q-57 0 -96 -32.5t-39 -90.5t38.5 -90.5t95.5 -32.5zM316 423q50 0 80.5 28t30.5 76q0 45 -32 73.5t-81 28.5t-81 -28t-32 -75t33.5 -75t81.5 -28z" />
    <glyph glyph-name="nine" unicode="9" horiz-adv-x="642" 
d="M302 -9q-109 0 -173 51t-77 144h125q21 -92 123 -92q156 0 159 245q-55 -90 -176 -90q-105 0 -171 63.5t-66 168.5q0 110 72 177.5t193 67.5q138 0 208.5 -87t70.5 -245v-37q0 -176 -75 -271t-213 -95zM311 342q61 0 99.5 37t38.5 96q0 71 -38 111.5t-101 40.5
q-60 0 -96.5 -39t-36.5 -103q0 -65 36.5 -104t97.5 -39z" />
    <glyph glyph-name="colon" unicode=":" horiz-adv-x="297" 
d="M148 -7q-33 0 -56 22.5t-23 55.5t23 56t56 23q34 0 57 -23t23 -56t-23 -55.5t-57 -22.5zM148 285q-33 0 -56 23t-23 56t23 55.5t56 22.5q34 0 57 -22.5t23 -55.5t-23 -56t-57 -23z" />
    <glyph glyph-name="semicolon" unicode=";" horiz-adv-x="303" 
d="M91 -123l-74 33l91 237l114 -46zM163 285q-34 0 -57 23t-23 56t23 55.5t57 22.5q33 0 56.5 -22.5t23.5 -55.5t-23.5 -56t-56.5 -23z" />
    <glyph glyph-name="less" unicode="&#x3c;" horiz-adv-x="507" 
d="M447 81l-398 228v26l398 228v-112l-234 -128l234 -131v-111z" />
    <glyph glyph-name="equal" unicode="=" horiz-adv-x="513" 
d="M39 185v91h434v-91h-434zM39 371v92h434v-92h-434z" />
    <glyph glyph-name="greater" unicode="&#x3e;" horiz-adv-x="507" 
d="M60 81v113l234 128l-234 131v111l399 -229v-25z" />
    <glyph glyph-name="question" unicode="?" horiz-adv-x="516" 
d="M175 215v38q0 28 7.5 52.5t26.5 49t29.5 36t37.5 37.5q24 24 36 37t23 34.5t11 41.5q0 39 -22 61.5t-67 22.5q-46 0 -76.5 -30.5t-35.5 -82.5h-116q5 98 69 155.5t165 57.5q103 0 156.5 -49t53.5 -126q0 -48 -22.5 -83.5t-65.5 -77.5q-2 -2 -15.5 -14.5t-16 -15.5
t-14 -14t-14.5 -15.5t-11 -14.5t-11 -16.5l-7.5 -16t-6.5 -18t-2 -17.5v-32h-112zM230 -7q-34 0 -58 22.5t-24 54.5q0 33 24 55.5t58 22.5q33 0 56.5 -22.5t23.5 -55.5q0 -32 -23.5 -54.5t-56.5 -22.5z" />
    <glyph glyph-name="at" unicode="@" horiz-adv-x="917" 
d="M460 -151q-194 0 -307.5 118t-113.5 290q0 185 128.5 308.5t307.5 123.5q178 0 291 -103t113 -262q0 -132 -60.5 -197.5t-138.5 -65.5q-60 0 -89.5 21.5t-38.5 62.5q-22 -40 -59.5 -64.5t-83.5 -24.5q-74 0 -118 48t-44 131q0 101 57 167t140 66q88 0 117 -65l7 57h108
l-31 -260q-11 -74 46 -74q47 0 79.5 49.5t32.5 147.5q0 135 -88 217t-240 82q-154 0 -255 -101.5t-101 -263.5q0 -146 89.5 -243.5t252.5 -97.5q150 0 244 84h83q-43 -69 -131 -110t-197 -41zM439 141q44 0 76.5 39.5t32.5 105.5q0 96 -89 96q-43 0 -72 -39t-29 -105
q0 -44 22 -70.5t59 -26.5z" />
    <glyph glyph-name="A" unicode="A" horiz-adv-x="703" 
d="M27 0l239 715h174l236 -715h-138l-57 177h-273l-56 -177h-125zM345 606l-106 -332h211z" />
    <glyph glyph-name="B" unicode="B" horiz-adv-x="645" 
d="M82 0v715h256q234 0 234 -186v-4q0 -117 -113 -152q73 -16 108 -57t35 -112v-4q0 -99 -63 -149.5t-182 -50.5h-275zM212 95h129q130 0 130 114v4q0 56 -33.5 83.5t-105.5 27.5h-120v-229zM212 414h110q65 0 93.5 25t28.5 80v4q0 51 -30 74t-94 23h-108v-206z" />
    <glyph glyph-name="C" unicode="C" horiz-adv-x="741" 
d="M395 -10q-166 0 -257.5 98t-91.5 265v8q0 160 98.5 262.5t248.5 102.5q128 0 211.5 -64t95.5 -186h-135q-23 144 -171 144q-95 0 -151.5 -69.5t-56.5 -188.5v-8q0 -121 55 -188.5t154 -67.5q76 0 124.5 38.5t58.5 112.5h130q-15 -126 -98.5 -192.5t-214.5 -66.5z" />
    <glyph glyph-name="D" unicode="D" horiz-adv-x="714" 
d="M215 105h78q118 0 177.5 64.5t59.5 185.5v8q0 247 -238 247h-77v-505zM82 0v715h217q182 0 276 -94.5t94 -255.5v-9q0 -162 -95 -259t-277 -97h-215z" />
    <glyph glyph-name="E" unicode="E" horiz-adv-x="584" 
d="M82 0v715h447v-105h-314v-196h252v-100h-252v-209h331v-105h-464z" />
    <glyph glyph-name="F" unicode="F" horiz-adv-x="559" 
d="M82 0v715h443v-106h-310v-213h244v-103h-244v-293h-133z" />
    <glyph glyph-name="G" unicode="G" horiz-adv-x="775" 
d="M403 -10q-168 0 -262.5 100.5t-94.5 262.5v8q0 160 100 262.5t257 102.5q124 0 209.5 -60t98.5 -181h-133q-23 136 -173 136q-104 0 -162.5 -71t-58.5 -190v-8q0 -119 56 -188.5t165 -69.5q95 0 142.5 50t50.5 130h-180v100h311v-66q0 -148 -87 -233t-239 -85z" />
    <glyph glyph-name="H" unicode="H" horiz-adv-x="751" 
d="M82 0v715h133v-304h321v304h134v-715h-134v304h-321v-304h-133z" />
    <glyph glyph-name="I" unicode="I" horiz-adv-x="307" 
d="M86 0v715h134v-715h-134z" />
    <glyph glyph-name="J" unicode="J" horiz-adv-x="443" 
d="M148 -9q-72 0 -112 21v104q45 -18 92 -18q107 0 107 122v495h134v-498q0 -113 -59 -169.5t-162 -56.5z" />
    <glyph glyph-name="K" unicode="K" horiz-adv-x="659" 
d="M82 0v715h133v-324l274 325h143l-296 -342l311 -374h-157l-275 334v-334h-133z" />
    <glyph glyph-name="L" unicode="L" horiz-adv-x="551" 
d="M82 0v715h133v-609h305v-106h-438z" />
    <glyph glyph-name="M" unicode="M" horiz-adv-x="890" 
d="M82 0v715h178l188 -488l184 488h176v-715h-133v540l-213 -540h-43l-217 540v-540h-120z" />
    <glyph glyph-name="N" unicode="N" horiz-adv-x="745" 
d="M82 0v715h159l301 -517v517h121v-715h-138l-322 548v-548h-121z" />
    <glyph glyph-name="O" unicode="O" horiz-adv-x="814" 
d="M410 97q101 0 160.5 70.5t59.5 187.5v8q0 113 -59.5 184.5t-162.5 71.5q-104 0 -163.5 -70t-59.5 -187v-8q0 -116 63 -186.5t162 -70.5zM408 -10q-162 0 -262 103t-100 260v8q0 157 102 260.5t260 103.5q159 0 259.5 -101.5t100.5 -259.5v-8q0 -159 -99.5 -262.5
t-260.5 -103.5z" />
    <glyph glyph-name="P" unicode="P" horiz-adv-x="609" 
d="M82 0v715h230q124 0 194.5 -55.5t70.5 -165.5v-4q0 -109 -71 -163.5t-191 -54.5h-100v-272h-133zM215 368h97q66 0 100.5 31.5t34.5 90.5v4q0 118 -135 118h-97v-244z" />
    <glyph glyph-name="Q" unicode="Q" horiz-adv-x="814" 
d="M644 -91l-98 105q-66 -24 -138 -24q-162 0 -262 103t-100 260v8q0 157 102 260t260 103q159 0 260 -101.5t101 -258.5v-8q0 -179 -124 -284l79 -85zM409 95q31 0 56 6l-70 76l81 76l88 -95q66 72 66 198v8q0 113 -59.5 184t-162.5 71q-105 0 -164.5 -70t-59.5 -187v-8
q0 -118 63 -188.5t162 -70.5z" />
    <glyph glyph-name="R" unicode="R" horiz-adv-x="655" 
d="M82 0v715h240q123 0 195 -52t72 -158v-4q0 -151 -159 -192l201 -309h-144l-187 289h-85v-289h-133zM215 384h107q136 0 136 114v4q0 59 -34.5 84.5t-101.5 25.5h-107v-228z" />
    <glyph glyph-name="S" unicode="S" horiz-adv-x="635" 
d="M325 -10q-140 0 -209.5 62t-77.5 170h128q8 -63 42 -97.5t117 -34.5q60 0 97.5 30.5t37.5 79.5q0 50 -31 73t-118 37q-133 18 -192.5 64.5t-59.5 144.5q0 89 69 147t180 58q116 0 183 -52.5t77 -154.5h-122q-10 56 -43 81.5t-95 25.5q-59 0 -91 -25.5t-32 -68.5
q0 -46 29.5 -69t118.5 -36q133 -18 194 -64.5t61 -149.5q0 -95 -73 -158t-190 -63z" />
    <glyph glyph-name="T" unicode="T" horiz-adv-x="583" 
d="M225 0v610h-199v105h532v-105h-199v-610h-134z" />
    <glyph glyph-name="U" unicode="U" horiz-adv-x="723" 
d="M357 -10q-135 0 -208 72.5t-73 209.5v443h134v-433q0 -99 34.5 -142t113.5 -43q80 0 117.5 43.5t37.5 150.5v424h134v-435q0 -141 -74.5 -215.5t-215.5 -74.5z" />
    <glyph glyph-name="V" unicode="V" horiz-adv-x="683" 
d="M264 0l-241 715h139l186 -580l187 580h125l-242 -715h-154z" />
    <glyph glyph-name="W" unicode="W" horiz-adv-x="955" 
d="M204 0l-178 715h136l124 -525l139 525h110l142 -528l128 528h124l-179 -715h-133l-141 521l-145 -521h-127z" />
    <glyph glyph-name="X" unicode="X" horiz-adv-x="695" 
d="M36 0l230 367l-214 348h150l152 -254l151 254h137l-211 -345l229 -370h-152l-168 279l-168 -279h-136z" />
    <glyph glyph-name="Y" unicode="Y" horiz-adv-x="629" 
d="M254 0v310l-237 405h147l161 -296l157 296h130l-224 -406v-309h-134z" />
    <glyph glyph-name="Z" unicode="Z" horiz-adv-x="608" 
d="M22 0v18l365 592h-328v105h516v-17l-357 -591h347v-107h-543z" />
    <glyph glyph-name="bracketleft" unicode="[" horiz-adv-x="377" 
d="M79 -148v924h256v-91h-134v-742h134v-91h-256z" />
    <glyph glyph-name="backslash" unicode="\" horiz-adv-x="415" 
d="M319 -148l-301 924h102l301 -924h-102z" />
    <glyph glyph-name="bracketright" unicode="]" horiz-adv-x="377" 
d="M42 -148v91h134v742h-134v91h256v-924h-256z" />
    <glyph glyph-name="asciicircum" unicode="^" horiz-adv-x="516" 
d="M36 402l166 313h113l166 -313h-112l-112 213l-113 -213h-108z" />
    <glyph glyph-name="underscore" unicode="_" horiz-adv-x="410" 
d="M-1 -159v74h412v-74h-412z" />
    <glyph glyph-name="grave" unicode="`" horiz-adv-x="400" 
d="M163 601l-104 155h134l59 -155h-89z" />
    <glyph glyph-name="a" unicode="a" horiz-adv-x="555" 
d="M209 -10q-77 0 -126 38.5t-49 116.5q0 86 73 126t195 40h65v27q0 54 -21.5 79.5t-73.5 25.5q-91 0 -100 -82h-117q7 87 68.5 130t155.5 43q209 0 209 -191v-343h-119v64q-56 -74 -160 -74zM238 77q57 0 93 28.5t36 77.5v52h-62q-151 0 -151 -85q0 -73 84 -73z" />
    <glyph glyph-name="b" unicode="b" horiz-adv-x="633" 
d="M364 -10q-60 0 -104.5 26t-66.5 68v-84h-121v765h121v-326q23 40 69.5 67.5t101.5 27.5q101 0 166.5 -71.5t65.5 -194.5v-8q0 -124 -64.5 -197t-167.5 -73zM334 86q67 0 102.5 44t35.5 128v8q0 84 -38.5 128.5t-100.5 44.5q-65 0 -104.5 -44.5t-39.5 -128.5v-8
q0 -85 38.5 -128.5t106.5 -43.5z" />
    <glyph glyph-name="c" unicode="c" horiz-adv-x="575" 
d="M301 -10q-115 0 -189.5 71.5t-74.5 193.5v8q0 122 76 196.5t188 74.5q96 0 162.5 -47.5t76.5 -148.5h-117q-14 99 -120 99q-63 0 -102.5 -46t-39.5 -126v-8q0 -84 38.5 -129t106.5 -45q50 0 85.5 29.5t40.5 82.5h111q-7 -92 -72 -148.5t-170 -56.5z" />
    <glyph glyph-name="d" unicode="d" horiz-adv-x="633" 
d="M268 -10q-102 0 -166 69.5t-64 193.5v8q0 124 66 198.5t169 74.5q116 0 167 -91v322h121v-765h-121v88q-22 -41 -69.5 -69.5t-102.5 -28.5zM298 86q66 0 106 44t40 129v8q0 85 -37 128.5t-104 43.5t-104 -45.5t-37 -129.5v-8q0 -83 37.5 -126.5t98.5 -43.5z" />
    <glyph glyph-name="e" unicode="e" horiz-adv-x="580" 
d="M302 -10q-117 0 -191 72t-74 194v8q0 120 73.5 195t186.5 75q106 0 176.5 -66t70.5 -198v-35h-383q3 -75 40 -115t104 -40q106 0 120 80h117q-13 -82 -76 -126t-164 -44zM163 316h261q-9 130 -127 130q-54 0 -89.5 -34.5t-44.5 -95.5z" />
    <glyph glyph-name="f" unicode="f" horiz-adv-x="362" 
d="M93 0v432h-71v91h71v70q0 86 46 131.5t130 45.5q38 0 69 -10v-94q-25 9 -55 9q-69 0 -69 -77v-75h119v-91h-119v-432h-121z" />
    <glyph glyph-name="g" unicode="g" horiz-adv-x="633" 
d="M295 -192q-117 0 -179 47t-73 127h122q16 -82 129 -82q146 0 146 141v77q-23 -40 -69.5 -68.5t-101.5 -28.5q-100 0 -166 69t-66 180v7q0 110 67 183.5t168 73.5q116 0 168 -91v80h121v-484q-1 -113 -71.5 -172t-194.5 -59zM299 114q64 0 104.5 43t40.5 117v7
q0 74 -38 116t-103 42q-66 0 -104 -44t-38 -116v-8q0 -71 39 -114t99 -43z" />
    <glyph glyph-name="h" unicode="h" horiz-adv-x="608" 
d="M72 0v765h121v-325q20 41 64 67.5t105 26.5q83 0 131 -50.5t48 -154.5v-329h-121v318q0 59 -25 87t-79 28t-88.5 -32.5t-34.5 -92.5v-308h-121z" />
    <glyph glyph-name="i" unicode="i" horiz-adv-x="271" 
d="M75 0v523h121v-523h-121zM134 609q-30 0 -51 20t-21 49q0 30 21 50t51 20t51 -20t21 -50q0 -29 -21 -49t-51 -20z" />
    <glyph glyph-name="j" unicode="j" horiz-adv-x="271" 
d="M3 -188v93q72 5 72 74v544h121v-541q0 -83 -44 -126t-149 -44zM134 609q-30 0 -51 20t-21 49q0 30 21 50t51 20t51 -20t21 -50q0 -29 -21 -49t-51 -20z" />
    <glyph glyph-name="k" unicode="k" horiz-adv-x="540" 
d="M72 0v765h121v-472l187 230h132l-203 -240l220 -283h-140l-196 257v-257h-121z" />
    <glyph glyph-name="l" unicode="l" horiz-adv-x="271" 
d="M75 0v765h121v-765h-121z" />
    <glyph glyph-name="m" unicode="m" horiz-adv-x="918" 
d="M72 0v523h121v-80q20 39 62 65t97 26q110 0 148 -94q29 46 77 70t100 24q77 0 125.5 -50.5t48.5 -152.5v-331h-121v323q0 110 -93 110q-48 0 -81.5 -31.5t-33.5 -88.5v-313h-121v323q0 110 -93 110q-48 0 -81.5 -31.5t-33.5 -88.5v-313h-121z" />
    <glyph glyph-name="n" unicode="n" horiz-adv-x="608" 
d="M72 0v523h121v-83q20 41 64 67.5t105 26.5q83 0 131 -50.5t48 -154.5v-329h-121v318q0 59 -25 87t-79 28t-88.5 -32.5t-34.5 -92.5v-308h-121z" />
    <glyph glyph-name="o" unicode="o" horiz-adv-x="611" 
d="M306 84q67 0 105.5 46.5t38.5 127.5v7q0 81 -38.5 127.5t-105.5 46.5q-68 0 -106.5 -46t-38.5 -127v-8q0 -81 38.5 -127.5t106.5 -46.5zM305 -10q-117 0 -192.5 74t-75.5 192v8q0 120 76 195t193 75q116 0 192 -74t76 -193v-8q0 -121 -76 -195t-193 -74z" />
    <glyph glyph-name="p" unicode="p" horiz-adv-x="633" 
d="M72 -179v702h121v-84q23 40 69.5 67.5t101.5 27.5q101 0 166.5 -71.5t65.5 -194.5v-8q0 -124 -64.5 -197t-167.5 -73q-59 0 -104 25.5t-67 66.5v-261h-121zM334 86q67 0 102.5 44t35.5 128v8q0 84 -38.5 128.5t-100.5 44.5q-65 0 -104.5 -44.5t-39.5 -128.5v-8
q0 -85 38.5 -128.5t106.5 -43.5z" />
    <glyph glyph-name="q" unicode="q" horiz-adv-x="633" 
d="M440 -179v265q-22 -40 -69.5 -68t-102.5 -28q-102 0 -166 69.5t-64 193.5v8q0 124 66 198.5t169 74.5q116 0 167 -91v80h121v-702h-121zM298 86q66 0 106 44t40 129v8q0 85 -37 128.5t-104 43.5t-104 -45.5t-37 -129.5v-8q0 -83 37.5 -126.5t98.5 -43.5z" />
    <glyph glyph-name="r" unicode="r" horiz-adv-x="397" 
d="M72 0v523h121v-98q52 105 170 106v-113q-85 -1 -127.5 -34t-42.5 -112v-272h-121z" />
    <glyph glyph-name="s" unicode="s" horiz-adv-x="494" 
d="M251 -10q-101 0 -158 45t-61 128h114q5 -42 29 -63t75 -21q94 0 94 67q0 31 -25.5 46.5t-86.5 25.5q-105 17 -147 51.5t-42 107.5q0 74 58 115.5t138 41.5q188 0 205 -158h-112q-8 36 -29.5 53t-63.5 17q-39 0 -61 -17t-22 -45t23 -42t85 -25q102 -16 149 -49t47 -111
q0 -80 -54.5 -123.5t-154.5 -43.5z" />
    <glyph glyph-name="t" unicode="t" horiz-adv-x="369" 
d="M250 -9q-77 0 -117.5 40t-40.5 115v286h-70v91h70v115h121v-115h115v-91h-115v-275q0 -67 60 -67q35 0 59 10v-96q-35 -13 -82 -13z" />
    <glyph glyph-name="u" unicode="u" horiz-adv-x="605" 
d="M247 -10q-82 0 -131 49t-49 149v335h121v-321q0 -59 25 -87t78 -28q52 0 87 33t35 92v311h121v-523h-121v82q-21 -41 -63.5 -66.5t-102.5 -25.5z" />
    <glyph glyph-name="v" unicode="v" horiz-adv-x="557" 
d="M209 0l-191 523h130l137 -399l135 399h119l-189 -523h-141z" />
    <glyph glyph-name="w" unicode="w" horiz-adv-x="814" 
d="M180 0l-160 523h129l104 -378l111 378h101l102 -378l109 378h118l-164 -523h-123l-97 352l-106 -352h-124z" />
    <glyph glyph-name="x" unicode="x" horiz-adv-x="556" 
d="M21 0l182 268l-170 255h140l109 -169l108 169h127l-169 -246l187 -277h-141l-122 189l-125 -189h-126z" />
    <glyph glyph-name="y" unicode="y" horiz-adv-x="553" 
d="M130 -179l95 232l-207 470h131l139 -337l128 337h118l-285 -702h-119z" />
    <glyph glyph-name="z" unicode="z" horiz-adv-x="493" 
d="M17 0v14l277 413h-250v96h429v-17l-276 -409h268v-97h-448z" />
    <glyph glyph-name="braceleft" unicode="{" horiz-adv-x="396" 
d="M354 -147q-130 0 -187.5 52t-37.5 165l17 96q8 45 -18.5 75.5t-91.5 30.5v87q65 0 91.5 30.5t18.5 75.5l-17 96q-20 115 37 166t188 51v-89q-69 -2 -93.5 -29t-14.5 -98l17 -110q8 -53 -19.5 -88t-80.5 -48q54 -12 81 -47.5t19 -88.5l-17 -109q-10 -72 14.5 -99.5
t93.5 -29.5v-89z" />
    <glyph glyph-name="bar" unicode="|" horiz-adv-x="259" 
d="M84 -148v924h90v-924h-90z" />
    <glyph glyph-name="braceright" unicode="}" horiz-adv-x="396" 
d="M42 -147v89q69 2 93.5 29.5t13.5 99.5l-16 109q-8 53 19 88.5t81 47.5q-54 13 -81 48t-19 88l16 110q11 71 -13.5 98t-93.5 29v89q131 0 188 -51t37 -166l-17 -96q-8 -45 18 -75.5t91 -30.5v-87q-65 0 -91 -30.5t-18 -75.5l17 -96q20 -113 -37.5 -165t-187.5 -52z" />
    <glyph glyph-name="asciitilde" unicode="~" horiz-adv-x="474" 
d="M38 220q5 77 39.5 116t82.5 39q38 0 85.5 -24t59.5 -24q18 0 30.5 13t14.5 37h86q-4 -75 -39 -115.5t-81 -40.5q-40 0 -87.5 24.5t-59.5 24.5q-39 0 -45 -50h-86z" />
    <glyph glyph-name="uni00A0" unicode="&#xa0;" horiz-adv-x="271" 
 />
    <glyph glyph-name="exclamdown" unicode="&#xa1;" horiz-adv-x="306" 
d="M85 -117l19 500h97l19 -500h-135zM153 450q-33 0 -57 22.5t-24 55.5q0 32 24 54.5t57 22.5t57 -22.5t24 -54.5q0 -33 -24 -55.5t-57 -22.5z" />
    <glyph glyph-name="cent" unicode="&#xa2;" horiz-adv-x="577" 
d="M270 -135v127q-104 10 -168.5 80t-64.5 184v8q0 111 65.5 183.5t167.5 84.5v97h67v-97q85 -7 142 -55.5t66 -138.5h-114q-13 83 -94 100v-356q42 8 70 37t32 76h109q-7 -84 -63.5 -139.5t-147.5 -63.5v-127h-67zM159 256q0 -72 29.5 -116.5t81.5 -55.5v353
q-51 -12 -81 -57.5t-30 -115.5v-8z" />
    <glyph glyph-name="sterling" unicode="&#xa3;" horiz-adv-x="620" 
d="M42 304v85h60q-16 64 -16 120q0 97 69 156t173 59q110 0 170.5 -56t67.5 -153h-125q-9 54 -34.5 80t-75.5 26t-80.5 -32t-30.5 -85q0 -48 13 -115h199v-85h-182q10 -53 10 -102q0 -30 -12 -63q20 -6 50 -17t52 -17.5t38 -6.5q75 0 80 75h117q-5 -81 -50.5 -131.5
t-124.5 -50.5q-52 0 -124 29.5t-93 29.5q-27 0 -41.5 -14.5t-17.5 -35.5h-104q4 49 30.5 90t74.5 54q10 28 10 59q0 40 -18 101h-85z" />
    <glyph glyph-name="yen" unicode="&#xa5;" horiz-adv-x="604" 
d="M76 286v63h149l-204 366h145l147 -288l141 288h128l-192 -366h150v-63h-166v-67h166v-64h-166v-155h-132v155h-166v64h166v67h-166z" />
    <glyph glyph-name="brokenbar" unicode="&#xa6;" horiz-adv-x="264" 
d="M84 -148v447h90v-447h-90zM84 369v407h90v-407h-90z" />
    <glyph glyph-name="section" unicode="&#xa7;" horiz-adv-x="565" 
d="M276 -137q-92 0 -145.5 45t-55.5 126h116q6 -81 86 -81q41 0 62.5 20t21.5 53t-26 52t-101 37q-100 25 -150 65t-50 115q0 49 29.5 84t81.5 51q-55 44 -55 123q0 76 57.5 123.5t141.5 47.5q90 0 142 -44t55 -123h-115q-3 38 -22 57.5t-61 19.5q-41 0 -62 -20.5t-21 -53.5
q0 -34 24 -52t98 -36q103 -26 154 -64t51 -117q0 -46 -29.5 -82t-80.5 -54q54 -43 54 -122q0 -73 -57 -121.5t-143 -48.5zM343 200q71 17 71 76q0 34 -26 51.5t-89 35.5l-77 22q-33 -7 -51.5 -27t-18.5 -49q0 -32 27 -50t89 -36z" />
    <glyph glyph-name="dieresis" unicode="&#xa8;" horiz-adv-x="400" 
d="M101 613q-27 0 -46.5 19t-19.5 46q0 26 19.5 45.5t46.5 19.5t46.5 -19.5t19.5 -45.5q0 -27 -19.5 -46t-46.5 -19zM299 613q-28 0 -47 19t-19 46q0 26 19.5 45.5t46.5 19.5t46.5 -19.5t19.5 -45.5q0 -27 -19.5 -46t-46.5 -19z" />
    <glyph glyph-name="copyright" unicode="&#xa9;" horiz-adv-x="843" 
d="M425 153q-95 0 -147.5 54t-52.5 146v8q0 90 56 145.5t142 55.5q76 0 123.5 -37t53.5 -109h-96q-11 70 -81 70q-46 0 -72 -32.5t-26 -92.5v-7q0 -60 25.5 -92t73.5 -32q79 0 88 74h92q-6 -73 -54.5 -112t-124.5 -39zM421 32q132 0 226.5 92.5t94.5 234.5
q0 141 -92.5 232.5t-226.5 91.5q-135 0 -228 -92t-93 -234t94 -233.5t225 -91.5zM421 -13q-156 0 -264.5 106.5t-108.5 263.5q0 155 109 263t266 108q158 0 265.5 -107t107.5 -262q0 -158 -109 -265t-266 -107z" />
    <glyph glyph-name="ordfeminine" unicode="&#xaa;" horiz-adv-x="444" 
d="M169 289q-61 0 -100.5 31t-39.5 93q0 132 215 132h51v22q0 39 -16.5 57.5t-53.5 18.5q-65 0 -75 -59h-104q5 69 55 104.5t129 35.5q173 0 173 -155v-271h-107v50q-42 -59 -127 -59zM200 368q42 0 68.5 20t26.5 56v37h-48q-109 0 -109 -61q0 -52 62 -52z" />
    <glyph glyph-name="guillemotleft" unicode="&#xab;" horiz-adv-x="492" 
d="M176 78l-128 183l128 183h95l-123 -183l123 -183h-95zM355 78l-128 183l128 183h95l-123 -183l123 -183h-95z" />
    <glyph glyph-name="registered" unicode="&#xae;" horiz-adv-x="515" 
d="M178 396v219h82q87 0 87 -68v-1q0 -43 -42 -59l55 -91h-59l-48 81h-19v-81h-56zM234 515h24q34 0 34 28v1q0 28 -34 28h-24v-57zM258 319q78 0 130.5 51.5t52.5 132.5t-51.5 132.5t-131.5 51.5t-132 -51.5t-52 -133.5q0 -81 52.5 -132t131.5 -51zM258 281
q-94 0 -159.5 64t-65.5 157t65.5 158t159.5 65q95 0 159.5 -64.5t64.5 -157.5q0 -94 -65 -158t-159 -64z" />
    <glyph glyph-name="macron" unicode="&#xaf;" horiz-adv-x="400" 
d="M60 634v78h280v-78h-280z" />
    <glyph glyph-name="degree" unicode="&#xb0;" horiz-adv-x="437" 
d="M219 459q39 0 64.5 28.5t25.5 71.5q0 44 -25.5 73t-64.5 29q-40 0 -66.5 -29t-26.5 -73q0 -42 26.5 -71t66.5 -29zM219 396q-70 0 -119.5 48t-49.5 115q0 68 49.5 116.5t119.5 48.5t119 -48.5t49 -116.5q0 -67 -49 -115t-119 -48z" />
    <glyph glyph-name="plusminus" unicode="&#xb1;" horiz-adv-x="539" 
d="M219 157v175h-182v94h182v176h101v-176h183v-94h-183v-175h-101zM37 0v89h467v-89h-467z" />
    <glyph glyph-name="twosuperior" unicode="&#xb2;" horiz-adv-x="313" 
d="M7 360v13l128 135q59 61 59 99q0 43 -42 43q-45 0 -52 -61h-85q3 63 40.5 97t100.5 34q62 0 95.5 -30t33.5 -79q0 -59 -70 -126l-58 -57h131v-68h-281z" />
    <glyph glyph-name="threesuperior" unicode="&#xb3;" horiz-adv-x="336" 
d="M166 354q-71 0 -107.5 32.5t-38.5 87.5h83q5 -54 58 -54q54 0 54 47q0 45 -54 45h-28v58h27q52 0 52 43q0 40 -45 40q-22 0 -36.5 -12.5t-17.5 -35.5h-83q4 51 40.5 83t98.5 32q61 0 96 -26.5t35 -70.5q0 -57 -61 -77q32 -6 51 -27.5t19 -54.5q0 -51 -37.5 -80.5
t-105.5 -29.5z" />
    <glyph glyph-name="acute" unicode="&#xb4;" horiz-adv-x="400" 
d="M148 601l59 155h134l-104 -155h-89z" />
    <glyph glyph-name="paragraph" unicode="&#xb6;" horiz-adv-x="573" 
d="M268 -100v439h-11q-101 0 -160 47.5t-59 137.5q0 93 60 142t159 49h232v-815h-72v755h-78v-755h-71z" />
    <glyph glyph-name="periodcentered" unicode="&#xb7;" horiz-adv-x="289" 
d="M144 248q-33 0 -56 23t-23 56t23 55.5t56 22.5q34 0 57 -22.5t23 -55.5t-23 -56t-57 -23z" />
    <glyph glyph-name="cedilla" unicode="&#xb8;" horiz-adv-x="400" 
d="M206 -219q-47 0 -76 23.5t-34 64.5h66q6 -33 40 -33q17 0 27 9.5t10 24.5q0 14 -9.5 23t-25.5 9t-30 -9l-34 32l44 75h60l-29 -50q41 5 70.5 -16.5t29.5 -66.5q0 -41 -30.5 -63.5t-78.5 -22.5z" />
    <glyph glyph-name="onesuperior" unicode="&#xb9;" horiz-adv-x="253" 
d="M104 360v265l-82 -51v78l94 63h82v-355h-94z" />
    <glyph glyph-name="ordmasculine" unicode="&#xba;" horiz-adv-x="504" 
d="M253 374q50 0 77 34.5t27 95.5v6q0 60 -27.5 94.5t-76.5 34.5q-50 0 -78 -34t-28 -95v-6q0 -61 27.5 -95.5t78.5 -34.5zM252 289q-95 0 -156.5 58.5t-61.5 153.5v6q0 98 62 157.5t157 59.5q94 0 155.5 -59t61.5 -154v-6q0 -97 -61.5 -156.5t-156.5 -59.5z" />
    <glyph glyph-name="guillemotright" unicode="&#xbb;" horiz-adv-x="492" 
d="M43 78l123 183l-123 183h95l128 -183l-128 -183h-95zM221 78l123 183l-123 183h95l128 -183l-128 -183h-95z" />
    <glyph glyph-name="onequarter" unicode="&#xbc;" horiz-adv-x="724" 
d="M107 360v265l-82 -51v78l94 63h82v-355h-94zM55 0l528 715h77l-528 -715h-77zM566 0v69h-178v34l154 252h113v-222h46v-64h-46v-69h-89zM477 133h91v157z" />
    <glyph glyph-name="onehalf" unicode="&#xbd;" horiz-adv-x="728" 
d="M42 0l528 715h77l-528 -715h-77zM107 360v265l-82 -51v78l94 63h82v-355h-94zM418 0v13l128 135q59 61 59 99q0 43 -42 43q-45 0 -52 -61h-85q3 63 40 97t101 34q62 0 95.5 -30t33.5 -79q0 -59 -70 -126l-58 -57h131v-68h-281z" />
    <glyph glyph-name="threequarters" unicode="&#xbe;" horiz-adv-x="738" 
d="M169 354q-71 0 -107.5 32.5t-38.5 87.5h83q5 -54 58 -54q54 0 54 47q0 45 -54 45h-28v58h27q52 0 52 43q0 40 -45 40q-22 0 -36.5 -12.5t-17.5 -35.5h-83q4 51 40.5 83t98.5 32q61 0 96 -26.5t35 -70.5q0 -57 -61 -77q32 -6 51 -27.5t19 -54.5q0 -51 -37.5 -80.5
t-105.5 -29.5zM96 0l528 715h77l-528 -715h-77zM577 0v69h-178v34l154 252h113v-222h46v-64h-46v-69h-89zM488 133h91v157z" />
    <glyph glyph-name="questiondown" unicode="&#xbf;" horiz-adv-x="516" 
d="M340 383v-38q0 -37 -17.5 -72t-33 -52.5t-49.5 -50.5q-35 -33 -52.5 -58.5t-17.5 -54.5q0 -84 88 -84q47 0 77 30.5t35 82.5h116q-4 -97 -68 -154.5t-166 -57.5q-103 0 -156.5 48.5t-53.5 126.5q0 47 22.5 82.5t65.5 77.5q2 2 15.5 14.5t16 15.5t13.5 14t14.5 15.5
l11.5 14.5t11 16.5t8 16t6.5 18t2.5 17.5v32h111zM286 606q34 0 57.5 -23t23.5 -55q0 -33 -23.5 -55.5t-57.5 -22.5q-33 0 -57 22.5t-24 55.5q0 32 24 55t57 23z" />
    <glyph glyph-name="Agrave" unicode="&#xc0;" horiz-adv-x="703" 
d="M27 0l239 715h174l236 -715h-138l-57 177h-273l-56 -177h-125zM345 606l-106 -332h211zM311 766l-98 135h136l53 -135h-91z" />
    <glyph glyph-name="Aacute" unicode="&#xc1;" horiz-adv-x="703" 
d="M27 0l239 715h174l236 -715h-138l-57 177h-273l-56 -177h-125zM345 606l-106 -332h211zM298 766l54 135h136l-99 -135h-91z" />
    <glyph glyph-name="Acircumflex" unicode="&#xc2;" horiz-adv-x="703" 
d="M27 0l239 715h174l236 -715h-138l-57 177h-273l-56 -177h-125zM345 606l-106 -332h211zM188 766l111 135h104l108 -135h-88l-74 55l-75 -55h-86z" />
    <glyph glyph-name="Atilde" unicode="&#xc3;" horiz-adv-x="703" 
d="M27 0l239 715h174l236 -715h-138l-57 177h-273l-56 -177h-125zM345 606l-106 -332h211zM408 768q-26 0 -63 19.5t-49 19.5q-13 0 -23.5 -11.5t-13.5 -28.5h-76q5 61 35.5 96t73.5 35q25 0 62 -20t51 -20q13 0 23 11t13 29h77q-6 -61 -36.5 -95.5t-73.5 -34.5z" />
    <glyph glyph-name="Adieresis" unicode="&#xc4;" horiz-adv-x="703" 
d="M27 0l239 715h174l236 -715h-138l-57 177h-273l-56 -177h-125zM345 606l-106 -332h211zM244 777q-27 0 -46.5 19t-19.5 46t19.5 46t46.5 19t46.5 -19t19.5 -46t-19.5 -46t-46.5 -19zM455 777q-27 0 -46.5 19t-19.5 46t19.5 46t46.5 19t46.5 -19t19.5 -46t-19.5 -46
t-46.5 -19z" />
    <glyph glyph-name="Aring" unicode="&#xc5;" horiz-adv-x="703" 
d="M27 0l239 715h174l236 -715h-138l-57 177h-273l-56 -177h-125zM350 753q-46 0 -79 32t-33 77t33 77t79 32t79 -32t33 -77t-33 -77t-79 -32zM345 606l-106 -332h211zM350 807q22 0 36 15.5t14 39.5t-14 39.5t-36 15.5t-36 -15.5t-14 -39.5t14 -39.5t36 -15.5z" />
    <glyph glyph-name="AE" unicode="&#xc6;" horiz-adv-x="971" 
d="M22 0l351 715h543v-105h-312v-196h250v-100h-250v-209h329v-105h-462v183h-232l-87 -183h-130zM444 610l-159 -332h186v332h-27z" />
    <glyph glyph-name="Ccedilla" unicode="&#xc7;" horiz-adv-x="741" 
d="M380 -219q-47 0 -76 23.5t-34 64.5h66q6 -33 40 -33q17 0 27 9.5t10 24.5q0 14 -9.5 23t-25.5 9t-30 -9l-34 32l39 67q-147 13 -227 109t-80 252v8q0 160 98.5 262.5t248.5 102.5q128 0 211.5 -64t95.5 -186h-135q-23 144 -171 144q-95 0 -151.5 -69.5t-56.5 -188.5v-8
q0 -121 55 -188.5t154 -67.5q76 0 124.5 38.5t58.5 112.5h130q-15 -122 -93.5 -188t-202.5 -71l-23 -40q41 5 70.5 -16.5t29.5 -66.5q0 -41 -30.5 -63.5t-78.5 -22.5z" />
    <glyph glyph-name="Egrave" unicode="&#xc8;" horiz-adv-x="584" 
d="M274 766l-98 135h136l53 -135h-91zM82 0v715h447v-105h-314v-196h252v-100h-252v-209h331v-105h-464z" />
    <glyph glyph-name="Eacute" unicode="&#xc9;" horiz-adv-x="584" 
d="M261 766l54 135h136l-99 -135h-91zM82 0v715h447v-105h-314v-196h252v-100h-252v-209h331v-105h-464z" />
    <glyph glyph-name="Ecircumflex" unicode="&#xca;" horiz-adv-x="584" 
d="M151 766l111 135h104l108 -135h-88l-74 55l-75 -55h-86zM82 0v715h447v-105h-314v-196h252v-100h-252v-209h331v-105h-464z" />
    <glyph glyph-name="Edieresis" unicode="&#xcb;" horiz-adv-x="584" 
d="M82 0v715h447v-105h-314v-196h252v-100h-252v-209h331v-105h-464zM207 777q-27 0 -46.5 19t-19.5 46t19.5 46t46.5 19t46.5 -19t19.5 -46t-19.5 -46t-46.5 -19zM418 777q-27 0 -46.5 19t-19.5 46t19.5 46t46.5 19t46.5 -19t19.5 -46t-19.5 -46t-46.5 -19z" />
    <glyph glyph-name="Igrave" unicode="&#xcc;" horiz-adv-x="307" 
d="M86 0v715h134v-715h-134zM114 766l-98 135h136l53 -135h-91z" />
    <glyph glyph-name="Iacute" unicode="&#xcd;" horiz-adv-x="307" 
d="M86 0v715h134v-715h-134zM101 766l54 135h136l-99 -135h-91z" />
    <glyph glyph-name="Icircumflex" unicode="&#xce;" horiz-adv-x="307" 
d="M86 0v715h134v-715h-134zM-9 766l111 135h104l108 -135h-88l-74 55l-75 -55h-86z" />
    <glyph glyph-name="Idieresis" unicode="&#xcf;" horiz-adv-x="307" 
d="M86 0v715h134v-715h-134zM47 777q-27 0 -46.5 19t-19.5 46t19.5 46t46.5 19t46.5 -19t19.5 -46t-19.5 -46t-46.5 -19zM258 777q-27 0 -46.5 19t-19.5 46t19.5 46t46.5 19t46.5 -19t19.5 -46t-19.5 -46t-46.5 -19z" />
    <glyph glyph-name="Eth" unicode="&#xd0;" horiz-adv-x="739" 
d="M32 311v95h69v309h217q182 0 276 -94.5t94 -255.5v-9q0 -162 -94.5 -259t-276.5 -97h-216v311h-69zM233 105h80q118 0 177 64.5t59 185.5v8q0 247 -237 247h-79v-204h173v-95h-173v-206z" />
    <glyph glyph-name="Ntilde" unicode="&#xd1;" horiz-adv-x="745" 
d="M443 768q-26 0 -63 19.5t-49 19.5q-13 0 -23.5 -11.5t-13.5 -28.5h-76q5 61 35.5 96t73.5 35q25 0 62 -20t51 -20q13 0 23 11t13 29h77q-6 -61 -36.5 -95.5t-73.5 -34.5zM82 0v715h159l301 -517v517h121v-715h-138l-322 548v-548h-121z" />
    <glyph glyph-name="Ograve" unicode="&#xd2;" horiz-adv-x="814" 
d="M367 766l-98 135h136l53 -135h-91zM410 97q101 0 160.5 70.5t59.5 187.5v8q0 113 -59.5 184.5t-162.5 71.5q-104 0 -163.5 -70t-59.5 -187v-8q0 -116 63 -186.5t162 -70.5zM408 -10q-162 0 -262 103t-100 260v8q0 157 102 260.5t260 103.5q159 0 259.5 -101.5
t100.5 -259.5v-8q0 -159 -99.5 -262.5t-260.5 -103.5z" />
    <glyph glyph-name="Oacute" unicode="&#xd3;" horiz-adv-x="814" 
d="M354 766l54 135h136l-99 -135h-91zM410 97q101 0 160.5 70.5t59.5 187.5v8q0 113 -59.5 184.5t-162.5 71.5q-104 0 -163.5 -70t-59.5 -187v-8q0 -116 63 -186.5t162 -70.5zM408 -10q-162 0 -262 103t-100 260v8q0 157 102 260.5t260 103.5q159 0 259.5 -101.5
t100.5 -259.5v-8q0 -159 -99.5 -262.5t-260.5 -103.5z" />
    <glyph glyph-name="Ocircumflex" unicode="&#xd4;" horiz-adv-x="814" 
d="M244 766l111 135h104l108 -135h-88l-74 55l-75 -55h-86zM410 97q101 0 160.5 70.5t59.5 187.5v8q0 113 -59.5 184.5t-162.5 71.5q-104 0 -163.5 -70t-59.5 -187v-8q0 -116 63 -186.5t162 -70.5zM408 -10q-162 0 -262 103t-100 260v8q0 157 102 260.5t260 103.5
q159 0 259.5 -101.5t100.5 -259.5v-8q0 -159 -99.5 -262.5t-260.5 -103.5z" />
    <glyph glyph-name="Otilde" unicode="&#xd5;" horiz-adv-x="814" 
d="M464 768q-26 0 -63 19.5t-49 19.5q-13 0 -23.5 -11.5t-13.5 -28.5h-76q5 61 35.5 96t73.5 35q25 0 62 -20t51 -20q13 0 23 11t13 29h77q-6 -61 -36.5 -95.5t-73.5 -34.5zM410 97q101 0 160.5 70.5t59.5 187.5v8q0 113 -59.5 184.5t-162.5 71.5q-104 0 -163.5 -70
t-59.5 -187v-8q0 -116 63 -186.5t162 -70.5zM408 -10q-162 0 -262 103t-100 260v8q0 157 102 260.5t260 103.5q159 0 259.5 -101.5t100.5 -259.5v-8q0 -159 -99.5 -262.5t-260.5 -103.5z" />
    <glyph glyph-name="Odieresis" unicode="&#xd6;" horiz-adv-x="814" 
d="M300 777q-27 0 -46.5 19t-19.5 46t19.5 46t46.5 19t46.5 -19t19.5 -46t-19.5 -46t-46.5 -19zM511 777q-27 0 -46.5 19t-19.5 46t19.5 46t46.5 19t46.5 -19t19.5 -46t-19.5 -46t-46.5 -19zM410 97q101 0 160.5 70.5t59.5 187.5v8q0 113 -59.5 184.5t-162.5 71.5
q-104 0 -163.5 -70t-59.5 -187v-8q0 -116 63 -186.5t162 -70.5zM408 -10q-162 0 -262 103t-100 260v8q0 157 102 260.5t260 103.5q159 0 259.5 -101.5t100.5 -259.5v-8q0 -159 -99.5 -262.5t-260.5 -103.5z" />
    <glyph glyph-name="multiply" unicode="&#xd7;" horiz-adv-x="509" 
d="M101 115l-66 66l154 153l-155 154l66 67l154 -155l154 154l66 -66l-154 -154l155 -154l-67 -66l-154 155z" />
    <glyph glyph-name="Oslash" unicode="&#xd8;" horiz-adv-x="814" 
d="M84 -33l-50 51l91 98q-79 98 -79 237v8q0 157 102 260t260 103q127 0 219 -67l78 84l50 -50l-75 -81q89 -100 89 -246v-8q0 -159 -100 -262.5t-261 -103.5q-137 0 -232 76zM409 97q102 0 162 70.5t60 188.5v8q0 91 -37 154l-336 -364q60 -57 151 -57zM184 354
q0 -82 31 -141l333 359q-56 47 -140 47q-105 0 -164.5 -70t-59.5 -187v-8z" />
    <glyph glyph-name="Ugrave" unicode="&#xd9;" horiz-adv-x="723" 
d="M321 766l-98 135h136l53 -135h-91zM357 -10q-135 0 -208 72.5t-73 209.5v443h134v-433q0 -99 34.5 -142t113.5 -43q80 0 117.5 43.5t37.5 150.5v424h134v-435q0 -141 -74.5 -215.5t-215.5 -74.5z" />
    <glyph glyph-name="Uacute" unicode="&#xda;" horiz-adv-x="723" 
d="M308 766l54 135h136l-99 -135h-91zM357 -10q-135 0 -208 72.5t-73 209.5v443h134v-433q0 -99 34.5 -142t113.5 -43q80 0 117.5 43.5t37.5 150.5v424h134v-435q0 -141 -74.5 -215.5t-215.5 -74.5z" />
    <glyph glyph-name="Ucircumflex" unicode="&#xdb;" horiz-adv-x="723" 
d="M198 766l111 135h104l108 -135h-88l-74 55l-75 -55h-86zM357 -10q-135 0 -208 72.5t-73 209.5v443h134v-433q0 -99 34.5 -142t113.5 -43q80 0 117.5 43.5t37.5 150.5v424h134v-435q0 -141 -74.5 -215.5t-215.5 -74.5z" />
    <glyph glyph-name="Udieresis" unicode="&#xdc;" horiz-adv-x="723" 
d="M357 -10q-135 0 -208 72.5t-73 209.5v443h134v-433q0 -99 34.5 -142t113.5 -43q80 0 117.5 43.5t37.5 150.5v424h134v-435q0 -141 -74.5 -215.5t-215.5 -74.5zM254 777q-27 0 -46.5 19t-19.5 46t19.5 46t46.5 19t46.5 -19t19.5 -46t-19.5 -46t-46.5 -19zM465 777
q-27 0 -46.5 19t-19.5 46t19.5 46t46.5 19t46.5 -19t19.5 -46t-19.5 -46t-46.5 -19z" />
    <glyph glyph-name="Yacute" unicode="&#xdd;" horiz-adv-x="629" 
d="M254 0v310l-237 405h147l161 -296l157 296h130l-224 -406v-309h-134zM265 766l54 135h136l-99 -135h-91z" />
    <glyph glyph-name="Thorn" unicode="&#xde;" horiz-adv-x="609" 
d="M82 0v715h133v-127h97q125 0 195 -53t70 -162v-4q0 -109 -70.5 -162.5t-191.5 -53.5h-100v-153h-133zM215 250h97q135 0 135 119v4q0 61 -34 88t-101 27h-97v-238z" />
    <glyph glyph-name="germandbls" unicode="&#xdf;" horiz-adv-x="608" 
d="M353 -9q-56 0 -93 14v96q34 -15 72 -15q117 0 117 137v7q0 74 -47 114t-127 38v95q65 -1 96.5 32t31.5 78v4q0 45 -26.5 70t-77.5 25q-48 0 -77 -32.5t-29 -87.5v-566h-121v557q0 102 66.5 159.5t165.5 57.5q98 0 156 -48.5t58 -132.5v-3q0 -50 -32.5 -92.5t-86.5 -60.5
q77 -19 125.5 -75.5t48.5 -136.5v-6q0 -117 -61.5 -172.5t-158.5 -55.5z" />
    <glyph glyph-name="agrave" unicode="&#xe0;" horiz-adv-x="555" 
d="M209 -10q-77 0 -126 38.5t-49 116.5q0 86 73 126t195 40h65v27q0 54 -21.5 79.5t-73.5 25.5q-91 0 -100 -82h-117q7 87 68.5 130t155.5 43q209 0 209 -191v-343h-119v64q-56 -74 -160 -74zM238 77q57 0 93 28.5t36 77.5v52h-62q-151 0 -151 -85q0 -73 84 -73zM240 601
l-104 155h134l59 -155h-89z" />
    <glyph glyph-name="aacute" unicode="&#xe1;" horiz-adv-x="555" 
d="M209 -10q-77 0 -126 38.5t-49 116.5q0 86 73 126t195 40h65v27q0 54 -21.5 79.5t-73.5 25.5q-91 0 -100 -82h-117q7 87 68.5 130t155.5 43q209 0 209 -191v-343h-119v64q-56 -74 -160 -74zM238 77q57 0 93 28.5t36 77.5v52h-62q-151 0 -151 -85q0 -73 84 -73zM229 601
l59 155h134l-104 -155h-89z" />
    <glyph glyph-name="acircumflex" unicode="&#xe2;" horiz-adv-x="555" 
d="M209 -10q-77 0 -126 38.5t-49 116.5q0 86 73 126t195 40h65v27q0 54 -21.5 79.5t-73.5 25.5q-91 0 -100 -82h-117q7 87 68.5 130t155.5 43q209 0 209 -191v-343h-119v64q-56 -74 -160 -74zM238 77q57 0 93 28.5t36 77.5v52h-62q-151 0 -151 -85q0 -73 84 -73zM109 602
l114 151h96l111 -151h-86l-75 68l-76 -68h-84z" />
    <glyph glyph-name="atilde" unicode="&#xe3;" horiz-adv-x="555" 
d="M209 -10q-77 0 -126 38.5t-49 116.5q0 86 73 126t195 40h65v27q0 54 -21.5 79.5t-73.5 25.5q-91 0 -100 -82h-117q7 87 68.5 130t155.5 43q209 0 209 -191v-343h-119v64q-56 -74 -160 -74zM238 77q57 0 93 28.5t36 77.5v52h-62q-151 0 -151 -85q0 -73 84 -73zM337 606
q-26 0 -62.5 20t-48.5 20q-13 0 -23.5 -11.5t-13.5 -28.5h-75q6 62 35 96.5t72 34.5q25 0 61.5 -19.5t50.5 -19.5q29 0 36 40h75q-6 -62 -35.5 -97t-71.5 -35z" />
    <glyph glyph-name="adieresis" unicode="&#xe4;" horiz-adv-x="555" 
d="M209 -10q-77 0 -126 38.5t-49 116.5q0 86 73 126t195 40h65v27q0 54 -21.5 79.5t-73.5 25.5q-91 0 -100 -82h-117q7 87 68.5 130t155.5 43q209 0 209 -191v-343h-119v64q-56 -74 -160 -74zM238 77q57 0 93 28.5t36 77.5v52h-62q-151 0 -151 -85q0 -73 84 -73zM180 613
q-27 0 -46.5 19t-19.5 46q0 26 19.5 45.5t46.5 19.5t46.5 -19.5t19.5 -45.5q0 -27 -19.5 -46t-46.5 -19zM378 613q-28 0 -47 19t-19 46q0 26 19 45.5t47 19.5q27 0 46.5 -19.5t19.5 -45.5q0 -27 -19.5 -46t-46.5 -19z" />
    <glyph glyph-name="aring" unicode="&#xe5;" horiz-adv-x="555" 
d="M209 -10q-77 0 -126 38.5t-49 116.5q0 86 73 126t195 40h65v27q0 54 -21.5 79.5t-73.5 25.5q-91 0 -100 -82h-117q7 87 68.5 130t155.5 43q209 0 209 -191v-343h-119v64q-56 -74 -160 -74zM238 77q57 0 93 28.5t36 77.5v52h-62q-151 0 -151 -85q0 -73 84 -73zM279 643
q22 0 36 16t14 39q0 24 -14 39.5t-36 15.5t-36 -15.5t-14 -39.5q0 -23 14 -39t36 -16zM279 590q-46 0 -78.5 32t-32.5 76t32.5 76t78.5 32t78.5 -32t32.5 -76t-32.5 -76t-78.5 -32z" />
    <glyph glyph-name="ae" unicode="&#xe6;" horiz-adv-x="891" 
d="M620 -10q-135 0 -199 100q-35 -51 -83.5 -75.5t-121.5 -24.5q-81 0 -131.5 38.5t-50.5 116.5q0 87 72.5 128t193.5 41h68v24q0 54 -22.5 79.5t-72.5 25.5q-92 0 -101 -82h-117q7 87 68 130t153 43q122 0 166 -76q65 76 173 76q104 0 172.5 -65.5t68.5 -198.5v-33h-372
q3 -76 37.5 -116.5t99.5 -40.5q102 0 116 80h116q-13 -82 -74 -126t-159 -44zM239 77q57 0 93 28.5t36 77.5v53h-65q-149 0 -149 -84q0 -75 85 -75zM486 314h250q-10 132 -121 132q-52 0 -86.5 -35t-42.5 -97z" />
    <glyph glyph-name="ccedilla" unicode="&#xe7;" horiz-adv-x="575" 
d="M283 -219q-47 0 -76 23.5t-34 64.5h66q6 -33 40 -33q17 0 27 9.5t10 24.5q0 14 -9.5 23t-25.5 9q-17 0 -30 -9l-34 32l40 68q-99 13 -159.5 82t-60.5 180v8q0 122 76 196.5t188 74.5q96 0 162.5 -47.5t76.5 -148.5h-117q-14 99 -120 99q-63 0 -102.5 -46t-39.5 -126v-8
q0 -84 38.5 -129t106.5 -45q50 0 85.5 29.5t40.5 82.5h111q-7 -88 -68 -144.5t-160 -60.5l-23 -40q41 5 70.5 -16.5t29.5 -66.5q0 -41 -30.5 -63.5t-78.5 -22.5z" />
    <glyph glyph-name="egrave" unicode="&#xe8;" horiz-adv-x="580" 
d="M302 -10q-117 0 -191 72t-74 194v8q0 120 73.5 195t186.5 75q106 0 176.5 -66t70.5 -198v-35h-383q3 -75 40 -115t104 -40q106 0 120 80h117q-13 -82 -76 -126t-164 -44zM163 316h261q-9 130 -127 130q-54 0 -89.5 -34.5t-44.5 -95.5zM256 601l-104 155h134l59 -155h-89z
" />
    <glyph glyph-name="eacute" unicode="&#xe9;" horiz-adv-x="580" 
d="M245 601l59 155h134l-104 -155h-89zM302 -10q-117 0 -191 72t-74 194v8q0 120 73.5 195t186.5 75q106 0 176.5 -66t70.5 -198v-35h-383q3 -75 40 -115t104 -40q106 0 120 80h117q-13 -82 -76 -126t-164 -44zM163 316h261q-9 130 -127 130q-54 0 -89.5 -34.5t-44.5 -95.5z
" />
    <glyph glyph-name="ecircumflex" unicode="&#xea;" horiz-adv-x="580" 
d="M134 602l114 151h96l111 -151h-86l-75 68l-76 -68h-84zM302 -10q-117 0 -191 72t-74 194v8q0 120 73.5 195t186.5 75q106 0 176.5 -66t70.5 -198v-35h-383q3 -75 40 -115t104 -40q106 0 120 80h117q-13 -82 -76 -126t-164 -44zM163 316h261q-9 130 -127 130
q-54 0 -89.5 -34.5t-44.5 -95.5z" />
    <glyph glyph-name="edieresis" unicode="&#xeb;" horiz-adv-x="580" 
d="M196 613q-27 0 -46.5 19t-19.5 46q0 26 19.5 45.5t46.5 19.5t46.5 -19.5t19.5 -45.5q0 -27 -19.5 -46t-46.5 -19zM394 613q-28 0 -47 19t-19 46q0 26 19 45.5t47 19.5q27 0 46.5 -19.5t19.5 -45.5q0 -27 -19.5 -46t-46.5 -19zM302 -10q-117 0 -191 72t-74 194v8
q0 120 73.5 195t186.5 75q106 0 176.5 -66t70.5 -198v-35h-383q3 -75 40 -115t104 -40q106 0 120 80h117q-13 -82 -76 -126t-164 -44zM163 316h261q-9 130 -127 130q-54 0 -89.5 -34.5t-44.5 -95.5z" />
    <glyph glyph-name="igrave" unicode="&#xec;" horiz-adv-x="271" 
d="M75 0v523h121v-523h-121zM97 601l-104 155h134l59 -155h-89z" />
    <glyph glyph-name="iacute" unicode="&#xed;" horiz-adv-x="271" 
d="M86 601l59 155h134l-104 -155h-89zM75 0v523h121v-523h-121z" />
    <glyph glyph-name="icircumflex" unicode="&#xee;" horiz-adv-x="271" 
d="M-25 602l114 151h96l111 -151h-86l-75 68l-76 -68h-84zM75 0v523h121v-523h-121z" />
    <glyph glyph-name="idieresis" unicode="&#xef;" horiz-adv-x="271" 
d="M39 613q-27 0 -46.5 19t-19.5 46q0 26 19.5 45.5t46.5 19.5t46.5 -19.5t19.5 -45.5q0 -27 -19.5 -46t-46.5 -19zM231 613q-27 0 -46.5 19t-19.5 46q0 26 19.5 45.5t46.5 19.5t46.5 -19.5t19.5 -45.5q0 -27 -19.5 -46t-46.5 -19zM75 0v523h121v-523h-121z" />
    <glyph glyph-name="eth" unicode="&#xf0;" horiz-adv-x="611" 
d="M168 566l-27 54l103 49q-52 45 -124 96h143q44 -25 75 -50l93 45l27 -54l-69 -34q185 -171 185 -380v-22q0 -125 -75.5 -202.5t-194.5 -77.5q-117 0 -192 74.5t-75 194.5v10q0 115 70.5 188.5t166.5 73.5q80 0 134 -61q-40 79 -117 155zM306 84q67 0 105.5 47t38.5 126v8
q0 81 -38 127.5t-105 46.5q-68 0 -107 -46t-39 -127v-8q0 -81 38.5 -127.5t106.5 -46.5z" />
    <glyph glyph-name="ntilde" unicode="&#xf1;" horiz-adv-x="608" 
d="M72 0v523h121v-83q20 41 64 67.5t105 26.5q83 0 131 -50.5t48 -154.5v-329h-121v318q0 59 -25 87t-79 28t-88.5 -32.5t-34.5 -92.5v-308h-121zM361 606q-26 0 -62.5 20t-48.5 20q-13 0 -23.5 -11.5t-13.5 -28.5h-75q6 62 35 96.5t72 34.5q25 0 61.5 -19.5t50.5 -19.5
q29 0 36 40h75q-6 -62 -35.5 -97t-71.5 -35z" />
    <glyph glyph-name="ograve" unicode="&#xf2;" horiz-adv-x="611" 
d="M306 84q67 0 105.5 46.5t38.5 127.5v7q0 81 -38.5 127.5t-105.5 46.5q-68 0 -106.5 -46t-38.5 -127v-8q0 -81 38.5 -127.5t106.5 -46.5zM305 -10q-117 0 -192.5 74t-75.5 192v8q0 120 76 195t193 75q116 0 192 -74t76 -193v-8q0 -121 -76 -195t-193 -74zM266 601
l-104 155h134l59 -155h-89z" />
    <glyph glyph-name="oacute" unicode="&#xf3;" horiz-adv-x="611" 
d="M255 601l59 155h134l-104 -155h-89zM306 84q67 0 105.5 46.5t38.5 127.5v7q0 81 -38.5 127.5t-105.5 46.5q-68 0 -106.5 -46t-38.5 -127v-8q0 -81 38.5 -127.5t106.5 -46.5zM305 -10q-117 0 -192.5 74t-75.5 192v8q0 120 76 195t193 75q116 0 192 -74t76 -193v-8
q0 -121 -76 -195t-193 -74z" />
    <glyph glyph-name="ocircumflex" unicode="&#xf4;" horiz-adv-x="611" 
d="M144 602l114 151h96l111 -151h-86l-75 68l-76 -68h-84zM306 84q67 0 105.5 46.5t38.5 127.5v7q0 81 -38.5 127.5t-105.5 46.5q-68 0 -106.5 -46t-38.5 -127v-8q0 -81 38.5 -127.5t106.5 -46.5zM305 -10q-117 0 -192.5 74t-75.5 192v8q0 120 76 195t193 75q116 0 192 -74
t76 -193v-8q0 -121 -76 -195t-193 -74z" />
    <glyph glyph-name="otilde" unicode="&#xf5;" horiz-adv-x="611" 
d="M306 84q67 0 105.5 46.5t38.5 127.5v7q0 81 -38.5 127.5t-105.5 46.5q-68 0 -106.5 -46t-38.5 -127v-8q0 -81 38.5 -127.5t106.5 -46.5zM305 -10q-117 0 -192.5 74t-75.5 192v8q0 120 76 195t193 75q116 0 192 -74t76 -193v-8q0 -121 -76 -195t-193 -74zM363 606
q-26 0 -62.5 20t-48.5 20q-13 0 -23.5 -11.5t-13.5 -28.5h-75q6 62 35 96.5t72 34.5q25 0 61.5 -19.5t50.5 -19.5q29 0 36 40h75q-6 -62 -35.5 -97t-71.5 -35z" />
    <glyph glyph-name="odieresis" unicode="&#xf6;" horiz-adv-x="611" 
d="M206 613q-27 0 -46.5 19t-19.5 46q0 26 19.5 45.5t46.5 19.5t46.5 -19.5t19.5 -45.5q0 -27 -19.5 -46t-46.5 -19zM404 613q-28 0 -47 19t-19 46q0 26 19 45.5t47 19.5q27 0 46.5 -19.5t19.5 -45.5q0 -27 -19.5 -46t-46.5 -19zM306 84q67 0 105.5 46.5t38.5 127.5v7
q0 81 -38.5 127.5t-105.5 46.5q-68 0 -106.5 -46t-38.5 -127v-8q0 -81 38.5 -127.5t106.5 -46.5zM305 -10q-117 0 -192.5 74t-75.5 192v8q0 120 76 195t193 75q116 0 192 -74t76 -193v-8q0 -121 -76 -195t-193 -74z" />
    <glyph glyph-name="divide" unicode="&#xf7;" horiz-adv-x="540" 
d="M270 71q-32 0 -54 22t-22 53t22 53t54 22q31 0 53.5 -22t22.5 -53t-22.5 -53t-53.5 -22zM37 296v91h467v-91h-467zM270 461q-32 0 -54 22t-22 53q0 32 22 54t54 22q31 0 53.5 -22t22.5 -54q0 -31 -22.5 -53t-53.5 -22z" />
    <glyph glyph-name="oslash" unicode="&#xf8;" horiz-adv-x="611" 
d="M69 -38l-47 42l73 79q-58 71 -58 173v8q0 120 76 195t193 75q91 0 159 -48l67 73l47 -42l-67 -73q62 -72 62 -177v-8q0 -121 -76 -195t-193 -74q-95 0 -164 50zM306 84q68 0 106.5 46.5t38.5 126.5v8q0 54 -18 93l-222 -241q36 -33 95 -33zM161 258q0 -48 14 -87l220 239
q-38 30 -89 30q-68 0 -106.5 -46.5t-38.5 -127.5v-8z" />
    <glyph glyph-name="ugrave" unicode="&#xf9;" horiz-adv-x="605" 
d="M247 -10q-82 0 -131 49t-49 149v335h121v-321q0 -59 25 -87t78 -28q52 0 87 33t35 92v311h121v-523h-121v82q-21 -41 -63.5 -66.5t-102.5 -25.5zM263 601l-104 155h134l59 -155h-89z" />
    <glyph glyph-name="uacute" unicode="&#xfa;" horiz-adv-x="605" 
d="M252 601l59 155h134l-104 -155h-89zM247 -10q-82 0 -131 49t-49 149v335h121v-321q0 -59 25 -87t78 -28q52 0 87 33t35 92v311h121v-523h-121v82q-21 -41 -63.5 -66.5t-102.5 -25.5z" />
    <glyph glyph-name="ucircumflex" unicode="&#xfb;" horiz-adv-x="605" 
d="M141 602l114 151h96l111 -151h-86l-75 68l-76 -68h-84zM247 -10q-82 0 -131 49t-49 149v335h121v-321q0 -59 25 -87t78 -28q52 0 87 33t35 92v311h121v-523h-121v82q-21 -41 -63.5 -66.5t-102.5 -25.5z" />
    <glyph glyph-name="udieresis" unicode="&#xfc;" horiz-adv-x="605" 
d="M203 613q-27 0 -46.5 19t-19.5 46q0 26 19.5 45.5t46.5 19.5t46.5 -19.5t19.5 -45.5q0 -27 -19.5 -46t-46.5 -19zM401 613q-28 0 -47 19t-19 46q0 26 19.5 45.5t46.5 19.5t46.5 -19.5t19.5 -45.5q0 -27 -19.5 -46t-46.5 -19zM247 -10q-82 0 -131 49t-49 149v335h121v-321
q0 -59 25 -87t78 -28q52 0 87 33t35 92v311h121v-523h-121v82q-21 -41 -63.5 -66.5t-102.5 -25.5z" />
    <glyph glyph-name="yacute" unicode="&#xfd;" horiz-adv-x="553" 
d="M130 -179l95 232l-207 470h131l139 -337l128 337h118l-285 -702h-119zM235 601l59 155h134l-104 -155h-89z" />
    <glyph glyph-name="thorn" unicode="&#xfe;" horiz-adv-x="633" 
d="M72 -179v944h121v-326q23 40 69.5 67.5t101.5 27.5q101 0 166.5 -71.5t65.5 -194.5v-8q0 -124 -64.5 -197t-167.5 -73q-59 0 -104 25.5t-67 66.5v-261h-121zM334 86q67 0 102.5 44t35.5 128v8q0 84 -38.5 128.5t-100.5 44.5q-65 0 -104.5 -44.5t-39.5 -128.5v-8
q0 -85 38.5 -128.5t106.5 -43.5z" />
    <glyph glyph-name="ydieresis" unicode="&#xff;" horiz-adv-x="553" 
d="M130 -179l95 232l-207 470h131l139 -337l128 337h118l-285 -702h-119zM186 613q-27 0 -46.5 19t-19.5 46q0 26 19.5 45.5t46.5 19.5t46.5 -19.5t19.5 -45.5q0 -27 -19.5 -46t-46.5 -19zM384 613q-28 0 -47 19t-19 46q0 26 19 45.5t47 19.5q27 0 46.5 -19.5t19.5 -45.5
q0 -27 -19.5 -46t-46.5 -19z" />
    <glyph glyph-name="Amacron" unicode="&#x100;" horiz-adv-x="703" 
d="M27 0l239 715h174l236 -715h-138l-57 177h-273l-56 -177h-125zM345 606l-106 -332h211zM206 780v81h288v-81h-288z" />
    <glyph glyph-name="amacron" unicode="&#x101;" horiz-adv-x="555" 
d="M209 -10q-77 0 -126 38.5t-49 116.5q0 86 73 126t195 40h65v27q0 54 -21.5 79.5t-73.5 25.5q-91 0 -100 -82h-117q7 87 68.5 130t155.5 43q209 0 209 -191v-343h-119v64q-56 -74 -160 -74zM238 77q57 0 93 28.5t36 77.5v52h-62q-151 0 -151 -85q0 -73 84 -73zM139 634v78
h280v-78h-280z" />
    <glyph glyph-name="Abreve" unicode="&#x102;" horiz-adv-x="703" 
d="M27 0l239 715h174l236 -715h-138l-57 177h-273l-56 -177h-125zM345 606l-106 -332h211zM349 761q-62 0 -102 39t-43 101h85q8 -56 60 -56q53 0 63 56h84q-4 -62 -45 -101t-102 -39z" />
    <glyph glyph-name="abreve" unicode="&#x103;" horiz-adv-x="555" 
d="M209 -10q-77 0 -126 38.5t-49 116.5q0 86 73 126t195 40h65v27q0 54 -21.5 79.5t-73.5 25.5q-91 0 -100 -82h-117q7 87 68.5 130t155.5 43q209 0 209 -191v-343h-119v64q-56 -74 -160 -74zM238 77q57 0 93 28.5t36 77.5v52h-62q-151 0 -151 -85q0 -73 84 -73zM278 606
q-62 0 -101.5 39.5t-43.5 103.5h84q8 -58 61 -58q54 0 65 58h82q-4 -64 -45 -103.5t-102 -39.5z" />
    <glyph glyph-name="Aogonek" unicode="&#x104;" horiz-adv-x="703" 
d="M605 -182q-51 0 -81.5 22t-30.5 59q0 61 81 101h-36l-57 177h-273l-56 -177h-125l239 715h174l233 -708q-71 -41 -71 -83q0 -32 35 -32q25 0 43 9v-69q-30 -14 -75 -14zM345 606l-106 -332h211z" />
    <glyph glyph-name="aogonek" unicode="&#x105;" horiz-adv-x="555" 
d="M421 -182q-49 0 -79 21.5t-30 58.5q0 62 82 102h-25v64q-56 -74 -160 -74q-77 0 -126 38.5t-49 116.5q0 86 73 126t195 40h65v27q0 54 -21.5 79.5t-73.5 25.5q-91 0 -100 -82h-117q7 87 68.5 130t155.5 43q209 0 209 -191v-336q-70 -43 -70 -84q0 -33 35 -33q23 0 43 9
v-67q-30 -14 -75 -14zM238 77q57 0 93 28.5t36 77.5v52h-62q-151 0 -151 -85q0 -73 84 -73z" />
    <glyph glyph-name="Cacute" unicode="&#x106;" horiz-adv-x="741" 
d="M395 -10q-166 0 -257.5 98t-91.5 265v8q0 160 98.5 262.5t248.5 102.5q128 0 211.5 -64t95.5 -186h-135q-23 144 -171 144q-95 0 -151.5 -69.5t-56.5 -188.5v-8q0 -121 55 -188.5t154 -67.5q76 0 124.5 38.5t58.5 112.5h130q-15 -126 -98.5 -192.5t-214.5 -66.5zM342 766
l54 135h136l-99 -135h-91z" />
    <glyph glyph-name="cacute" unicode="&#x107;" horiz-adv-x="575" 
d="M248 601l59 155h134l-104 -155h-89zM301 -10q-115 0 -189.5 71.5t-74.5 193.5v8q0 122 76 196.5t188 74.5q96 0 162.5 -47.5t76.5 -148.5h-117q-14 99 -120 99q-63 0 -102.5 -46t-39.5 -126v-8q0 -84 38.5 -129t106.5 -45q50 0 85.5 29.5t40.5 82.5h111
q-7 -92 -72 -148.5t-170 -56.5z" />
    <glyph glyph-name="Ccircumflex" unicode="&#x108;" horiz-adv-x="741" 
d="M232 766l111 135h104l108 -135h-88l-74 55l-75 -55h-86zM395 -10q-166 0 -257.5 98t-91.5 265v8q0 160 98.5 262.5t248.5 102.5q128 0 211.5 -64t95.5 -186h-135q-23 144 -171 144q-95 0 -151.5 -69.5t-56.5 -188.5v-8q0 -121 55 -188.5t154 -67.5q76 0 124.5 38.5
t58.5 112.5h130q-15 -126 -98.5 -192.5t-214.5 -66.5z" />
    <glyph glyph-name="ccircumflex" unicode="&#x109;" horiz-adv-x="575" 
d="M137 602l114 151h96l111 -151h-86l-75 68l-76 -68h-84zM301 -10q-115 0 -189.5 71.5t-74.5 193.5v8q0 122 76 196.5t188 74.5q96 0 162.5 -47.5t76.5 -148.5h-117q-14 99 -120 99q-63 0 -102.5 -46t-39.5 -126v-8q0 -84 38.5 -129t106.5 -45q50 0 85.5 29.5t40.5 82.5
h111q-7 -92 -72 -148.5t-170 -56.5z" />
    <glyph glyph-name="Cdotaccent" unicode="&#x10a;" horiz-adv-x="741" 
d="M395 -10q-166 0 -257.5 98t-91.5 265v8q0 160 98.5 262.5t248.5 102.5q128 0 211.5 -64t95.5 -186h-135q-23 144 -171 144q-95 0 -151.5 -69.5t-56.5 -188.5v-8q0 -121 55 -188.5t154 -67.5q76 0 124.5 38.5t58.5 112.5h130q-15 -126 -98.5 -192.5t-214.5 -66.5zM391 775
q-30 0 -50.5 20t-20.5 49t20.5 48.5t50.5 19.5q29 0 50 -20t21 -48t-21 -48.5t-50 -20.5z" />
    <glyph glyph-name="cdotaccent" unicode="&#x10b;" horiz-adv-x="575" 
d="M301 -10q-115 0 -189.5 71.5t-74.5 193.5v8q0 122 76 196.5t188 74.5q96 0 162.5 -47.5t76.5 -148.5h-117q-14 99 -120 99q-63 0 -102.5 -46t-39.5 -126v-8q0 -84 38.5 -129t106.5 -45q50 0 85.5 29.5t40.5 82.5h111q-7 -92 -72 -148.5t-170 -56.5zM299 611
q-30 0 -50.5 20t-20.5 49t20.5 48.5t50.5 19.5q29 0 50 -20t21 -48q0 -29 -21 -49t-50 -20z" />
    <glyph glyph-name="Ccaron" unicode="&#x10c;" horiz-adv-x="741" 
d="M340 766l-108 135h88l75 -55l74 55h86l-110 -135h-105zM395 -10q-166 0 -257.5 98t-91.5 265v8q0 160 98.5 262.5t248.5 102.5q128 0 211.5 -64t95.5 -186h-135q-23 144 -171 144q-95 0 -151.5 -69.5t-56.5 -188.5v-8q0 -121 55 -188.5t154 -67.5q76 0 124.5 38.5
t58.5 112.5h130q-15 -126 -98.5 -192.5t-214.5 -66.5z" />
    <glyph glyph-name="ccaron" unicode="&#x10d;" horiz-adv-x="575" 
d="M249 602l-112 151h87l75 -67l75 67h84l-113 -151h-96zM301 -10q-115 0 -189.5 71.5t-74.5 193.5v8q0 122 76 196.5t188 74.5q96 0 162.5 -47.5t76.5 -148.5h-117q-14 99 -120 99q-63 0 -102.5 -46t-39.5 -126v-8q0 -84 38.5 -129t106.5 -45q50 0 85.5 29.5t40.5 82.5h111
q-7 -92 -72 -148.5t-170 -56.5z" />
    <glyph glyph-name="Dcaron" unicode="&#x10e;" horiz-adv-x="714" 
d="M270 766l-108 135h88l75 -55l74 55h86l-110 -135h-105zM215 105h78q118 0 177.5 64.5t59.5 185.5v8q0 247 -238 247h-77v-505zM82 0v715h217q182 0 276 -94.5t94 -255.5v-9q0 -162 -95 -259t-277 -97h-215z" />
    <glyph glyph-name="dcaron" unicode="&#x10f;" horiz-adv-x="633" 
d="M605 590l10 175h110l-49 -175h-71zM268 -10q-102 0 -166 69.5t-64 193.5v8q0 124 66 198.5t169 74.5q116 0 167 -91v322h121v-765h-121v88q-22 -41 -69.5 -69.5t-102.5 -28.5zM298 86q66 0 106 44t40 129v8q0 85 -37 128.5t-104 43.5t-104 -45.5t-37 -129.5v-8
q0 -83 37.5 -126.5t98.5 -43.5z" />
    <glyph glyph-name="Dcroat" unicode="&#x110;" horiz-adv-x="739" 
d="M32 311v95h69v309h217q182 0 276 -94.5t94 -255.5v-9q0 -162 -94.5 -259t-276.5 -97h-216v311h-69zM233 105h80q118 0 177 64.5t59 185.5v8q0 247 -237 247h-79v-204h173v-95h-173v-206z" />
    <glyph glyph-name="dcroat" unicode="&#x111;" horiz-adv-x="633" 
d="M271 604v75h169v86h121v-86h68v-75h-68v-604h-121v88q-22 -41 -69.5 -69.5t-102.5 -28.5q-102 0 -166 69.5t-64 193.5v8q0 124 66 198.5t169 74.5q116 0 167 -91v161h-169zM298 86q66 0 106 44t40 129v8q0 85 -37 128.5t-104 43.5t-104 -45.5t-37 -129.5v-8
q0 -83 37.5 -126.5t98.5 -43.5z" />
    <glyph glyph-name="Emacron" unicode="&#x112;" horiz-adv-x="584" 
d="M82 0v715h447v-105h-314v-196h252v-100h-252v-209h331v-105h-464zM169 780v81h288v-81h-288z" />
    <glyph glyph-name="emacron" unicode="&#x113;" horiz-adv-x="580" 
d="M302 -10q-117 0 -191 72t-74 194v8q0 120 73.5 195t186.5 75q106 0 176.5 -66t70.5 -198v-35h-383q3 -75 40 -115t104 -40q106 0 120 80h117q-13 -82 -76 -126t-164 -44zM163 316h261q-9 130 -127 130q-54 0 -89.5 -34.5t-44.5 -95.5zM155 634v78h280v-78h-280z" />
    <glyph glyph-name="Ebreve" unicode="&#x114;" horiz-adv-x="584" 
d="M82 0v715h447v-105h-314v-196h252v-100h-252v-209h331v-105h-464zM316 761q-62 0 -102 39t-43 101h85q8 -56 60 -56q53 0 63 56h84q-4 -62 -45 -101t-102 -39z" />
    <glyph glyph-name="ebreve" unicode="&#x115;" horiz-adv-x="580" 
d="M302 -10q-117 0 -191 72t-74 194v8q0 120 73.5 195t186.5 75q106 0 176.5 -66t70.5 -198v-35h-383q3 -75 40 -115t104 -40q106 0 120 80h117q-13 -82 -76 -126t-164 -44zM163 316h261q-9 130 -127 130q-54 0 -89.5 -34.5t-44.5 -95.5zM287 606q-62 0 -101.5 39.5
t-43.5 103.5h84q8 -58 61 -58q54 0 65 58h82q-4 -64 -45 -103.5t-102 -39.5z" />
    <glyph glyph-name="Edotaccent" unicode="&#x116;" horiz-adv-x="584" 
d="M313 775q-30 0 -50.5 20t-20.5 49t20.5 48.5t50.5 19.5q29 0 50 -20t21 -48t-21 -48.5t-50 -20.5zM82 0v715h447v-105h-314v-196h252v-100h-252v-209h331v-105h-464z" />
    <glyph glyph-name="edotaccent" unicode="&#x117;" horiz-adv-x="580" 
d="M302 -10q-117 0 -191 72t-74 194v8q0 120 73.5 195t186.5 75q106 0 176.5 -66t70.5 -198v-35h-383q3 -75 40 -115t104 -40q106 0 120 80h117q-13 -82 -76 -126t-164 -44zM163 316h261q-9 130 -127 130q-54 0 -89.5 -34.5t-44.5 -95.5zM295 611q-30 0 -50.5 20t-20.5 49
t20.5 48.5t50.5 19.5q29 0 50 -20t21 -48q0 -29 -21 -49t-50 -20z" />
    <glyph glyph-name="Eogonek" unicode="&#x118;" horiz-adv-x="584" 
d="M459 -182q-51 0 -81 22t-30 59q0 61 81 101h-347v715h447v-105h-314v-196h252v-100h-252v-209h331v-105h-32q-57 -40 -57 -76q0 -32 35 -32q24 0 43 9v-69q-30 -14 -76 -14z" />
    <glyph glyph-name="eogonek" unicode="&#x119;" horiz-adv-x="580" 
d="M395 -182q-50 0 -80 21.5t-30 58.5q0 54 74 96q-23 -4 -57 -4q-117 0 -191 72t-74 194v8q0 120 73.5 195t186.5 75q106 0 176.5 -66t70.5 -198v-35h-383q3 -75 40 -115t104 -40q106 0 120 80h117q-6 -35 -22.5 -65t-28.5 -42.5t-32 -30.5q-69 -62 -69 -99q0 -33 35 -33
q25 0 44 9v-67q-31 -14 -74 -14zM163 316h261q-9 130 -127 130q-54 0 -89.5 -34.5t-44.5 -95.5z" />
    <glyph glyph-name="Ecaron" unicode="&#x11a;" horiz-adv-x="584" 
d="M261 766l-108 135h88l75 -55l74 55h86l-110 -135h-105zM82 0v715h447v-105h-314v-196h252v-100h-252v-209h331v-105h-464z" />
    <glyph glyph-name="ecaron" unicode="&#x11b;" horiz-adv-x="580" 
d="M246 602l-112 151h87l75 -67l75 67h84l-113 -151h-96zM302 -10q-117 0 -191 72t-74 194v8q0 120 73.5 195t186.5 75q106 0 176.5 -66t70.5 -198v-35h-383q3 -75 40 -115t104 -40q106 0 120 80h117q-13 -82 -76 -126t-164 -44zM163 316h261q-9 130 -127 130
q-54 0 -89.5 -34.5t-44.5 -95.5z" />
    <glyph glyph-name="Gcircumflex" unicode="&#x11c;" horiz-adv-x="775" 
d="M403 -10q-168 0 -262.5 100.5t-94.5 262.5v8q0 160 100 262.5t257 102.5q124 0 209.5 -60t98.5 -181h-133q-23 136 -173 136q-104 0 -162.5 -71t-58.5 -190v-8q0 -119 56 -188.5t165 -69.5q95 0 142.5 50t50.5 130h-180v100h311v-66q0 -148 -87 -233t-239 -85zM236 766
l111 135h104l108 -135h-88l-74 55l-75 -55h-86z" />
    <glyph glyph-name="gcircumflex" unicode="&#x11d;" horiz-adv-x="633" 
d="M137 602l114 151h96l111 -151h-86l-75 68l-76 -68h-84zM295 -192q-117 0 -179 47t-73 127h122q16 -82 129 -82q146 0 146 141v77q-23 -40 -69.5 -68.5t-101.5 -28.5q-100 0 -166 69t-66 180v7q0 110 67 183.5t168 73.5q116 0 168 -91v80h121v-484q-1 -113 -71.5 -172
t-194.5 -59zM299 114q64 0 104.5 43t40.5 117v7q0 74 -38 116t-103 42q-66 0 -104 -44t-38 -116v-8q0 -71 39 -114t99 -43z" />
    <glyph glyph-name="Gbreve" unicode="&#x11e;" horiz-adv-x="775" 
d="M403 -10q-168 0 -262.5 100.5t-94.5 262.5v8q0 160 100 262.5t257 102.5q124 0 209.5 -60t98.5 -181h-133q-23 136 -173 136q-104 0 -162.5 -71t-58.5 -190v-8q0 -119 56 -188.5t165 -69.5q95 0 142.5 50t50.5 130h-180v100h311v-66q0 -148 -87 -233t-239 -85zM397 761
q-62 0 -102 39t-43 101h85q8 -56 60 -56q53 0 63 56h84q-4 -62 -45 -101t-102 -39z" />
    <glyph glyph-name="gbreve" unicode="&#x11f;" horiz-adv-x="633" 
d="M295 -192q-117 0 -179 47t-73 127h122q16 -82 129 -82q146 0 146 141v77q-23 -40 -69.5 -68.5t-101.5 -28.5q-100 0 -166 69t-66 180v7q0 110 67 183.5t168 73.5q116 0 168 -91v80h121v-484q-1 -113 -71.5 -172t-194.5 -59zM299 114q64 0 104.5 43t40.5 117v7
q0 74 -38 116t-103 42q-66 0 -104 -44t-38 -116v-8q0 -71 39 -114t99 -43zM297 606q-62 0 -101.5 39.5t-43.5 103.5h84q8 -58 61 -58q54 0 65 58h82q-4 -64 -45 -103.5t-102 -39.5z" />
    <glyph glyph-name="Gdotaccent" unicode="&#x120;" horiz-adv-x="775" 
d="M403 -10q-168 0 -262.5 100.5t-94.5 262.5v8q0 160 100 262.5t257 102.5q124 0 209.5 -60t98.5 -181h-133q-23 136 -173 136q-104 0 -162.5 -71t-58.5 -190v-8q0 -119 56 -188.5t165 -69.5q95 0 142.5 50t50.5 130h-180v100h311v-66q0 -148 -87 -233t-239 -85zM398 775
q-30 0 -50.5 20t-20.5 49t20.5 48.5t50.5 19.5q29 0 50 -20t21 -48t-21 -48.5t-50 -20.5z" />
    <glyph glyph-name="gdotaccent" unicode="&#x121;" horiz-adv-x="633" 
d="M295 -192q-117 0 -179 47t-73 127h122q16 -82 129 -82q146 0 146 141v77q-23 -40 -69.5 -68.5t-101.5 -28.5q-100 0 -166 69t-66 180v7q0 110 67 183.5t168 73.5q116 0 168 -91v80h121v-484q-1 -113 -71.5 -172t-194.5 -59zM299 114q64 0 104.5 43t40.5 117v7
q0 74 -38 116t-103 42q-66 0 -104 -44t-38 -116v-8q0 -71 39 -114t99 -43zM298 611q-30 0 -50.5 20t-20.5 49t20.5 48.5t50.5 19.5q29 0 50 -20t21 -48q0 -29 -21 -49t-50 -20z" />
    <glyph glyph-name="Gcommaaccent" unicode="&#x122;" horiz-adv-x="775" 
d="M403 -10q-168 0 -262.5 100.5t-94.5 262.5v8q0 160 100 262.5t257 102.5q124 0 209.5 -60t98.5 -181h-133q-23 136 -173 136q-104 0 -162.5 -71t-58.5 -190v-8q0 -119 56 -188.5t165 -69.5q95 0 142.5 50t50.5 130h-180v100h311v-66q0 -148 -87 -233t-239 -85zM372 -225
l-71 27l52 165l111 -22z" />
    <glyph glyph-name="gcommaaccent" unicode="&#x123;" horiz-adv-x="633" 
d="M355 588l-111 22l92 169l70 -26zM295 -192q-117 0 -179 47t-73 127h122q16 -82 129 -82q146 0 146 141v77q-23 -40 -69.5 -68.5t-101.5 -28.5q-100 0 -166 69t-66 180v7q0 110 67 183.5t168 73.5q116 0 168 -91v80h121v-484q-1 -113 -71.5 -172t-194.5 -59zM299 114
q64 0 104.5 43t40.5 117v7q0 74 -38 116t-103 42q-66 0 -104 -44t-38 -116v-8q0 -71 39 -114t99 -43z" />
    <glyph glyph-name="Hcircumflex" unicode="&#x124;" horiz-adv-x="751" 
d="M82 0v715h133v-304h321v304h134v-715h-134v304h-321v-304h-133zM213 766l111 135h104l108 -135h-88l-74 55l-75 -55h-86z" />
    <glyph glyph-name="hcircumflex" unicode="&#x125;" horiz-adv-x="608" 
d="M72 0v765h121v-325q20 41 64 67.5t105 26.5q83 0 131 -50.5t48 -154.5v-329h-121v318q0 59 -25 87t-79 28t-88.5 -32.5t-34.5 -92.5v-308h-121z" />
    <glyph glyph-name="Hbar" unicode="&#x126;" horiz-adv-x="751" 
d="M16 504v78h66v133h133v-133h321v133h134v-133h66v-78h-66v-504h-134v304h-321v-304h-133v504h-66zM215 411h321v93h-321v-93z" />
    <glyph glyph-name="hbar" unicode="&#x127;" horiz-adv-x="608" 
d="M4 604v75h68v86h121v-86h169v-75h-169v-164q20 41 64 67.5t105 26.5q83 0 131 -50.5t48 -154.5v-329h-121v318q0 59 -25 87t-79 28t-88.5 -32.5t-34.5 -92.5v-308h-121v604h-68z" />
    <glyph glyph-name="Itilde" unicode="&#x128;" horiz-adv-x="307" 
d="M86 0v715h134v-715h-134zM213 768q-26 0 -63 19.5t-49 19.5q-13 0 -23.5 -11.5t-13.5 -28.5h-76q5 61 35.5 96t73.5 35q25 0 62 -20t51 -20q13 0 23 11t13 29h77q-6 -61 -36.5 -95.5t-73.5 -34.5z" />
    <glyph glyph-name="itilde" unicode="&#x129;" horiz-adv-x="271" 
d="M75 0v523h121v-523h-121zM194 606q-26 0 -62.5 20t-48.5 20q-13 0 -23.5 -11.5t-13.5 -28.5h-75q6 62 35 96.5t72 34.5q25 0 61.5 -19.5t50.5 -19.5q29 0 36 40h75q-6 -62 -35.5 -97t-71.5 -35z" />
    <glyph glyph-name="Imacron" unicode="&#x12a;" horiz-adv-x="307" 
d="M86 0v715h134v-715h-134zM9 780v81h288v-81h-288z" />
    <glyph glyph-name="imacron" unicode="&#x12b;" horiz-adv-x="271" 
d="M28 634v78h214v-78h-214zM75 0v523h121v-523h-121z" />
    <glyph glyph-name="Ibreve" unicode="&#x12c;" horiz-adv-x="307" 
d="M86 0v715h134v-715h-134zM154 761q-62 0 -102 39t-43 101h85q8 -56 60 -56q53 0 63 56h84q-4 -62 -45 -101t-102 -39z" />
    <glyph glyph-name="ibreve" unicode="&#x12d;" horiz-adv-x="271" 
d="M75 0v523h121v-523h-121zM135 606q-62 0 -101.5 39.5t-43.5 103.5h84q8 -58 61 -58q54 0 65 58h82q-4 -64 -45 -103.5t-102 -39.5z" />
    <glyph glyph-name="Iogonek" unicode="&#x12e;" horiz-adv-x="307" 
d="M155 -182q-51 0 -81.5 22t-30.5 59q0 61 81 101h-38v715h134v-708q-68 -41 -68 -83q0 -32 35 -32q25 0 43 9v-69q-30 -14 -75 -14z" />
    <glyph glyph-name="iogonek" unicode="&#x12f;" horiz-adv-x="271" 
d="M134 -182q-50 0 -79.5 21.5t-29.5 59.5q0 61 81 101h-31v523h121v-518q-66 -42 -66 -82q0 -33 35 -33q25 0 43 9v-67q-30 -14 -74 -14zM134 609q-30 0 -51 20t-21 49q0 30 21 50t51 20t51 -20t21 -50q0 -29 -21 -49t-51 -20z" />
    <glyph glyph-name="Idotaccent" unicode="&#x130;" horiz-adv-x="307" 
d="M86 0v715h134v-715h-134zM154 775q-30 0 -50.5 20t-20.5 49t20.5 48.5t50.5 19.5q29 0 50 -20t21 -48t-21 -48.5t-50 -20.5z" />
    <glyph glyph-name="dotlessi" unicode="&#x131;" horiz-adv-x="271" 
d="M75 0v523h121v-523h-121z" />
    <glyph glyph-name="IJ" unicode="&#x132;" horiz-adv-x="715" 
d="M86 0v715h134v-715h-134zM419 -9q-72 0 -112 21v104q45 -18 92 -18q107 0 107 122v495h134v-498q0 -113 -59 -169.5t-162 -56.5z" />
    <glyph glyph-name="ij" unicode="&#x133;" horiz-adv-x="542" 
d="M75 0v523h121v-523h-121zM134 609q-30 0 -51 20t-21 49q0 30 21 50t51 20t51 -20t21 -50q0 -29 -21 -49t-51 -20zM273 -188v93q72 5 72 74v544h121v-541q0 -83 -44 -126t-149 -44zM404 609q-30 0 -51 20t-21 49q0 30 21 50t51 20t51 -20t21 -50q0 -29 -21 -49t-51 -20z
" />
    <glyph glyph-name="Jcircumflex" unicode="&#x134;" horiz-adv-x="443" 
d="M137 766l111 135h104l108 -135h-88l-74 55l-75 -55h-86zM148 -9q-72 0 -112 21v104q45 -18 92 -18q107 0 107 122v495h134v-498q0 -113 -59 -169.5t-162 -56.5z" />
    <glyph glyph-name="jcircumflex" unicode="&#x135;" horiz-adv-x="271" 
d="M3 -188v93q72 5 72 74v544h121v-541q0 -83 -44 -126t-149 -44zM-26 602l114 151h96l111 -151h-86l-75 68l-76 -68h-84z" />
    <glyph glyph-name="Kcommaaccent" unicode="&#x136;" horiz-adv-x="659" 
d="M82 0v715h133v-324l274 325h143l-296 -342l311 -374h-157l-275 334v-334h-133zM316 -225l-71 27l52 165l111 -22z" />
    <glyph glyph-name="kcommaaccent" unicode="&#x137;" horiz-adv-x="540" 
d="M72 0v765h121v-472l187 230h132l-203 -240l220 -283h-140l-196 257v-257h-121zM256 -225l-71 27l52 165l111 -22z" />
    <glyph glyph-name="Lacute" unicode="&#x139;" horiz-adv-x="551" 
d="M99 766l54 135h136l-99 -135h-91zM82 0v715h133v-609h305v-106h-438z" />
    <glyph glyph-name="lacute" unicode="&#x13a;" horiz-adv-x="271" 
d="M75 0v765h121v-765h-121z" />
    <glyph glyph-name="Lcommaaccent" unicode="&#x13b;" horiz-adv-x="551" 
d="M274 -225l-71 27l52 165l111 -22zM82 0v715h133v-609h305v-106h-438z" />
    <glyph glyph-name="lcommaaccent" unicode="&#x13c;" horiz-adv-x="271" 
d="M110 -225l-71 27l52 165l111 -22zM75 0v765h121v-765h-121z" />
    <glyph glyph-name="Lcaron" unicode="&#x13d;" horiz-adv-x="551" 
d="M313 550l20 165h115l-59 -165h-76zM82 0v715h133v-609h305v-106h-438z" />
    <glyph glyph-name="lcaron" unicode="&#x13e;" horiz-adv-x="271" 
d="M240 590l10 175h110l-49 -175h-71zM75 0v765h121v-765h-121z" />
    <glyph glyph-name="Ldot" unicode="&#x13f;" horiz-adv-x="561" 
d="M82 0v715h133v-609h305v-106h-438zM429 312q-33 0 -56 23t-23 56t23 55.5t56 22.5q34 0 57 -22.5t23 -55.5t-23 -56t-57 -23z" />
    <glyph glyph-name="ldot" unicode="&#x140;" horiz-adv-x="378" 
d="M75 0v765h121v-765h-121zM322 285q-33 0 -56 23t-23 56t23 55.5t56 22.5q34 0 57 -22.5t23 -55.5t-23 -56t-57 -23z" />
    <glyph glyph-name="Lslash" unicode="&#x141;" horiz-adv-x="570" 
d="M35 242v84l66 23v366h134v-318l191 69v-84l-191 -69v-207h305v-106h-439v265z" />
    <glyph glyph-name="lslash" unicode="&#x142;" horiz-adv-x="299" 
d="M19 291v88l70 37v349h121v-285l74 40v-88l-74 -40v-392h-121v328z" />
    <glyph glyph-name="Nacute" unicode="&#x143;" horiz-adv-x="745" 
d="M333 766l54 135h136l-99 -135h-91zM82 0v715h159l301 -517v517h121v-715h-138l-322 548v-548h-121z" />
    <glyph glyph-name="nacute" unicode="&#x144;" horiz-adv-x="608" 
d="M253 601l59 155h134l-104 -155h-89zM72 0v523h121v-83q20 41 64 67.5t105 26.5q83 0 131 -50.5t48 -154.5v-329h-121v318q0 59 -25 87t-79 28t-88.5 -32.5t-34.5 -92.5v-308h-121z" />
    <glyph glyph-name="Ncommaaccent" unicode="&#x145;" horiz-adv-x="745" 
d="M337 -225l-71 27l52 165l111 -22zM82 0v715h159l301 -517v517h121v-715h-138l-322 548v-548h-121z" />
    <glyph glyph-name="ncommaaccent" unicode="&#x146;" horiz-adv-x="608" 
d="M277 -225l-71 27l52 165l111 -22zM72 0v523h121v-83q20 41 64 67.5t105 26.5q83 0 131 -50.5t48 -154.5v-329h-121v318q0 59 -25 87t-79 28t-88.5 -32.5t-34.5 -92.5v-308h-121z" />
    <glyph glyph-name="Ncaron" unicode="&#x147;" horiz-adv-x="745" 
d="M331 766l-108 135h88l75 -55l74 55h86l-110 -135h-105zM82 0v715h159l301 -517v517h121v-715h-138l-322 548v-548h-121z" />
    <glyph glyph-name="ncaron" unicode="&#x148;" horiz-adv-x="608" 
d="M254 602l-112 151h87l75 -67l75 67h84l-113 -151h-96zM72 0v523h121v-83q20 41 64 67.5t105 26.5q83 0 131 -50.5t48 -154.5v-329h-121v318q0 59 -25 87t-79 28t-88.5 -32.5t-34.5 -92.5v-308h-121z" />
    <glyph glyph-name="napostrophe" unicode="&#x149;" horiz-adv-x="655" 
d="M32 464l-71 32l86 231l109 -43zM118 0v523h121v-83q20 41 64 67.5t105 26.5q83 0 131 -50.5t48 -154.5v-329h-121v318q0 59 -25 87t-79 28t-88.5 -32.5t-34.5 -92.5v-308h-121z" />
    <glyph glyph-name="Eng" unicode="&#x14a;" horiz-adv-x="745" 
d="M448 -193q-65 0 -109 21v101q45 -18 88 -18q98 0 104 95l-326 549v-555h-123v715h161l297 -507v507h123v-700q0 -101 -58 -154.5t-157 -53.5z" />
    <glyph glyph-name="eng" unicode="&#x14b;" horiz-adv-x="608" 
d="M349 -188v93q71 5 71 74v339q0 59 -25 87t-79 28t-88.5 -32.5t-34.5 -92.5v-308h-121v523h121v-83q20 41 64 67.5t105 26.5q83 0 131 -50.5t48 -154.5v-347q0 -83 -44 -126t-148 -44z" />
    <glyph glyph-name="Omacron" unicode="&#x14c;" horiz-adv-x="814" 
d="M262 780v81h288v-81h-288zM410 97q101 0 160.5 70.5t59.5 187.5v8q0 113 -59.5 184.5t-162.5 71.5q-104 0 -163.5 -70t-59.5 -187v-8q0 -116 63 -186.5t162 -70.5zM408 -10q-162 0 -262 103t-100 260v8q0 157 102 260.5t260 103.5q159 0 259.5 -101.5t100.5 -259.5v-8
q0 -159 -99.5 -262.5t-260.5 -103.5z" />
    <glyph glyph-name="omacron" unicode="&#x14d;" horiz-adv-x="611" 
d="M165 634v78h280v-78h-280zM306 84q67 0 105.5 46.5t38.5 127.5v7q0 81 -38.5 127.5t-105.5 46.5q-68 0 -106.5 -46t-38.5 -127v-8q0 -81 38.5 -127.5t106.5 -46.5zM305 -10q-117 0 -192.5 74t-75.5 192v8q0 120 76 195t193 75q116 0 192 -74t76 -193v-8q0 -121 -76 -195
t-193 -74z" />
    <glyph glyph-name="Obreve" unicode="&#x14e;" horiz-adv-x="814" 
d="M405 761q-62 0 -102 39t-43 101h85q8 -56 60 -56q53 0 63 56h84q-4 -62 -45 -101t-102 -39zM410 97q101 0 160.5 70.5t59.5 187.5v8q0 113 -59.5 184.5t-162.5 71.5q-104 0 -163.5 -70t-59.5 -187v-8q0 -116 63 -186.5t162 -70.5zM408 -10q-162 0 -262 103t-100 260v8
q0 157 102 260.5t260 103.5q159 0 259.5 -101.5t100.5 -259.5v-8q0 -159 -99.5 -262.5t-260.5 -103.5z" />
    <glyph glyph-name="obreve" unicode="&#x14f;" horiz-adv-x="611" 
d="M306 84q67 0 105.5 46.5t38.5 127.5v7q0 81 -38.5 127.5t-105.5 46.5q-68 0 -106.5 -46t-38.5 -127v-8q0 -81 38.5 -127.5t106.5 -46.5zM305 -10q-117 0 -192.5 74t-75.5 192v8q0 120 76 195t193 75q116 0 192 -74t76 -193v-8q0 -121 -76 -195t-193 -74zM304 606
q-62 0 -101.5 39.5t-43.5 103.5h84q8 -58 61 -58q54 0 65 58h82q-4 -64 -45 -103.5t-102 -39.5z" />
    <glyph glyph-name="Ohungarumlaut" unicode="&#x150;" horiz-adv-x="814" 
d="M272 766l38 135h118l-73 -135h-83zM442 766l38 135h118l-73 -135h-83zM410 97q101 0 160.5 70.5t59.5 187.5v8q0 113 -59.5 184.5t-162.5 71.5q-104 0 -163.5 -70t-59.5 -187v-8q0 -116 63 -186.5t162 -70.5zM408 -10q-162 0 -262 103t-100 260v8q0 157 102 260.5
t260 103.5q159 0 259.5 -101.5t100.5 -259.5v-8q0 -159 -99.5 -262.5t-260.5 -103.5z" />
    <glyph glyph-name="ohungarumlaut" unicode="&#x151;" horiz-adv-x="611" 
d="M177 601l41 155h113l-76 -155h-78zM340 601l41 155h113l-76 -155h-78zM306 84q67 0 105.5 46.5t38.5 127.5v7q0 81 -38.5 127.5t-105.5 46.5q-68 0 -106.5 -46t-38.5 -127v-8q0 -81 38.5 -127.5t106.5 -46.5zM305 -10q-117 0 -192.5 74t-75.5 192v8q0 120 76 195t193 75
q116 0 192 -74t76 -193v-8q0 -121 -76 -195t-193 -74z" />
    <glyph glyph-name="OE" unicode="&#x152;" horiz-adv-x="964" 
d="M46 359q0 162 94.5 259t276.5 97h493v-105h-299v-196h236v-100h-236v-209h316v-105h-512q-181 0 -275 94.5t-94 255.5v9zM478 610h-58q-117 0 -176 -64.5t-59 -185.5v-8q0 -247 237 -247h56v505z" />
    <glyph glyph-name="oe" unicode="&#x153;" horiz-adv-x="991" 
d="M305 -10q-117 0 -192.5 74t-75.5 192v8q0 120 76 195t193 75q136 0 204 -103q67 103 198 103q106 0 177 -66t71 -198v-35h-384q3 -75 40 -115t105 -40q104 0 120 80h116q-13 -82 -75.5 -126t-163.5 -44q-140 0 -205 102q-67 -102 -204 -102zM306 84q67 0 105.5 47
t38.5 126v8q0 81 -38.5 127.5t-105.5 46.5q-68 0 -106.5 -46t-38.5 -127v-8q0 -81 38.5 -127.5t106.5 -46.5zM574 316h261q-9 130 -127 130q-54 0 -89.5 -34.5t-44.5 -95.5z" />
    <glyph glyph-name="Racute" unicode="&#x154;" horiz-adv-x="655" 
d="M268 766l54 135h136l-99 -135h-91zM82 0v715h240q123 0 195 -52t72 -158v-4q0 -151 -159 -192l201 -309h-144l-187 289h-85v-289h-133zM215 384h107q136 0 136 114v4q0 59 -34.5 84.5t-101.5 25.5h-107v-228z" />
    <glyph glyph-name="racute" unicode="&#x155;" horiz-adv-x="397" 
d="M166 601l59 155h134l-104 -155h-89zM72 0v523h121v-98q52 105 170 106v-113q-85 -1 -127.5 -34t-42.5 -112v-272h-121z" />
    <glyph glyph-name="Rcommaaccent" unicode="&#x156;" horiz-adv-x="655" 
d="M306 -225l-71 27l52 165l111 -22zM82 0v715h240q123 0 195 -52t72 -158v-4q0 -151 -159 -192l201 -309h-144l-187 289h-85v-289h-133zM215 384h107q136 0 136 114v4q0 59 -34.5 84.5t-101.5 25.5h-107v-228z" />
    <glyph glyph-name="rcommaaccent" unicode="&#x157;" horiz-adv-x="397" 
d="M106 -225l-71 27l52 165l111 -22zM72 0v523h121v-98q52 105 170 106v-113q-85 -1 -127.5 -34t-42.5 -112v-272h-121z" />
    <glyph glyph-name="Rcaron" unicode="&#x158;" horiz-adv-x="655" 
d="M266 766l-108 135h88l75 -55l74 55h86l-110 -135h-105zM82 0v715h240q123 0 195 -52t72 -158v-4q0 -151 -159 -192l201 -309h-144l-187 289h-85v-289h-133zM215 384h107q136 0 136 114v4q0 59 -34.5 84.5t-101.5 25.5h-107v-228z" />
    <glyph glyph-name="rcaron" unicode="&#x159;" horiz-adv-x="397" 
d="M167 602l-112 151h87l75 -67l75 67h84l-113 -151h-96zM72 0v523h121v-98q52 105 170 106v-113q-85 -1 -127.5 -34t-42.5 -112v-272h-121z" />
    <glyph glyph-name="Sacute" unicode="&#x15a;" horiz-adv-x="635" 
d="M325 -10q-140 0 -209.5 62t-77.5 170h128q8 -63 42 -97.5t117 -34.5q60 0 97.5 30.5t37.5 79.5q0 50 -31 73t-118 37q-133 18 -192.5 64.5t-59.5 144.5q0 89 69 147t180 58q116 0 183 -52.5t77 -154.5h-122q-10 56 -43 81.5t-95 25.5q-59 0 -91 -25.5t-32 -68.5
q0 -46 29.5 -69t118.5 -36q133 -18 194 -64.5t61 -149.5q0 -95 -73 -158t-190 -63zM257 766l54 135h136l-99 -135h-91z" />
    <glyph glyph-name="sacute" unicode="&#x15b;" horiz-adv-x="494" 
d="M195 601l59 155h134l-104 -155h-89zM251 -10q-101 0 -158 45t-61 128h114q5 -42 29 -63t75 -21q94 0 94 67q0 31 -25.5 46.5t-86.5 25.5q-105 17 -147 51.5t-42 107.5q0 74 58 115.5t138 41.5q188 0 205 -158h-112q-8 36 -29.5 53t-63.5 17q-39 0 -61 -17t-22 -45t23 -42
t85 -25q102 -16 149 -49t47 -111q0 -80 -54.5 -123.5t-154.5 -43.5z" />
    <glyph glyph-name="Scircumflex" unicode="&#x15c;" horiz-adv-x="635" 
d="M147 766l111 135h104l108 -135h-88l-74 55l-75 -55h-86zM325 -10q-140 0 -209.5 62t-77.5 170h128q8 -63 42 -97.5t117 -34.5q60 0 97.5 30.5t37.5 79.5q0 50 -31 73t-118 37q-133 18 -192.5 64.5t-59.5 144.5q0 89 69 147t180 58q116 0 183 -52.5t77 -154.5h-122
q-10 56 -43 81.5t-95 25.5q-59 0 -91 -25.5t-32 -68.5q0 -46 29.5 -69t118.5 -36q133 -18 194 -64.5t61 -149.5q0 -95 -73 -158t-190 -63z" />
    <glyph glyph-name="scircumflex" unicode="&#x15d;" horiz-adv-x="494" 
d="M83 602l114 151h96l111 -151h-86l-75 68l-76 -68h-84zM251 -10q-101 0 -158 45t-61 128h114q5 -42 29 -63t75 -21q94 0 94 67q0 31 -25.5 46.5t-86.5 25.5q-105 17 -147 51.5t-42 107.5q0 74 58 115.5t138 41.5q188 0 205 -158h-112q-8 36 -29.5 53t-63.5 17
q-39 0 -61 -17t-22 -45t23 -42t85 -25q102 -16 149 -49t47 -111q0 -80 -54.5 -123.5t-154.5 -43.5z" />
    <glyph glyph-name="Scedilla" unicode="&#x15e;" horiz-adv-x="635" 
d="M295 -219q-47 0 -76 23.5t-34 64.5h66q6 -33 40 -33q17 0 27 9.5t10 24.5q0 14 -9.5 23t-25.5 9q-17 0 -30 -9l-34 32l40 68q-111 12 -167.5 72.5t-63.5 156.5h128q8 -63 42 -97.5t117 -34.5q60 0 97.5 30.5t37.5 79.5q0 50 -31 73t-118 37q-133 18 -192.5 64.5
t-59.5 144.5q0 89 69 147t180 58q116 0 183 -52.5t77 -154.5h-122q-10 56 -43 81.5t-95 25.5q-59 0 -91 -25.5t-32 -68.5q0 -46 29.5 -69t118.5 -36q133 -18 194 -64.5t61 -149.5q0 -94 -72.5 -157t-188.5 -64l-23 -40q41 5 70.5 -16.5t29.5 -66.5q0 -41 -30.5 -63.5
t-78.5 -22.5z" />
    <glyph glyph-name="scedilla" unicode="&#x15f;" horiz-adv-x="494" 
d="M232 -219q-47 0 -76 23.5t-34 64.5h66q6 -33 40 -33q17 0 27 9.5t10 24.5q0 14 -9.5 23t-25.5 9t-30 -9l-34 32l39 68q-80 9 -125 53t-48 117h114q5 -42 29 -63t75 -21q94 0 94 67q0 31 -25.5 46.5t-86.5 25.5q-105 17 -147 51.5t-42 107.5q0 74 58 115.5t138 41.5
q188 0 205 -158h-112q-8 36 -29.5 53t-63.5 17q-39 0 -61 -17t-22 -45t23 -42t85 -25q102 -16 149 -49t47 -111q0 -77 -51 -120.5t-145 -46.5l-23 -40q41 5 70.5 -16.5t29.5 -66.5q0 -41 -30.5 -63.5t-78.5 -22.5z" />
    <glyph glyph-name="Scaron" unicode="&#x160;" horiz-adv-x="635" 
d="M255 766l-108 135h88l75 -55l74 55h86l-110 -135h-105zM325 -10q-140 0 -209.5 62t-77.5 170h128q8 -63 42 -97.5t117 -34.5q60 0 97.5 30.5t37.5 79.5q0 50 -31 73t-118 37q-133 18 -192.5 64.5t-59.5 144.5q0 89 69 147t180 58q116 0 183 -52.5t77 -154.5h-122
q-10 56 -43 81.5t-95 25.5q-59 0 -91 -25.5t-32 -68.5q0 -46 29.5 -69t118.5 -36q133 -18 194 -64.5t61 -149.5q0 -95 -73 -158t-190 -63z" />
    <glyph glyph-name="scaron" unicode="&#x161;" horiz-adv-x="494" 
d="M194 602l-112 151h87l75 -67l75 67h84l-113 -151h-96zM251 -10q-101 0 -158 45t-61 128h114q5 -42 29 -63t75 -21q94 0 94 67q0 31 -25.5 46.5t-86.5 25.5q-105 17 -147 51.5t-42 107.5q0 74 58 115.5t138 41.5q188 0 205 -158h-112q-8 36 -29.5 53t-63.5 17
q-39 0 -61 -17t-22 -45t23 -42t85 -25q102 -16 149 -49t47 -111q0 -80 -54.5 -123.5t-154.5 -43.5z" />
    <glyph glyph-name="Tcommaaccent" unicode="&#x162;" horiz-adv-x="584" 
d="M265 -225l-71 27l52 165l111 -22zM225 0v610h-199v105h532v-105h-199v-610h-134z" />
    <glyph glyph-name="tcommaaccent" unicode="&#x163;" horiz-adv-x="369" 
d="M173 -225l-71 27l52 165l111 -22zM250 -9q-77 0 -117.5 40t-40.5 115v286h-70v91h70v115h121v-115h115v-91h-115v-275q0 -67 60 -67q35 0 59 10v-96q-35 -13 -82 -13z" />
    <glyph glyph-name="Tcaron" unicode="&#x164;" horiz-adv-x="583" 
d="M237 766l-108 135h88l75 -55l74 55h86l-110 -135h-105zM225 0v610h-199v105h532v-105h-199v-610h-134z" />
    <glyph glyph-name="tcaron" unicode="&#x165;" horiz-adv-x="369" 
d="M275 590l10 175h110l-49 -175h-71zM250 -9q-77 0 -117.5 40t-40.5 115v286h-70v91h70v115h121v-115h115v-91h-115v-275q0 -67 60 -67q35 0 59 10v-96q-35 -13 -82 -13z" />
    <glyph glyph-name="Tbar" unicode="&#x166;" horiz-adv-x="583" 
d="M87 315v90h138v205h-199v105h532v-105h-199v-205h137v-90h-137v-315h-134v315h-138z" />
    <glyph glyph-name="tbar" unicode="&#x167;" horiz-adv-x="369" 
d="M22 261v75h70v97h-70v90h70v115h121v-115h114v-90h-114v-97h114v-75h-114v-104q0 -68 60 -68q32 0 59 11v-96q-41 -13 -82 -13q-77 0 -117.5 40t-40.5 115v115h-70z" />
    <glyph glyph-name="Utilde" unicode="&#x168;" horiz-adv-x="723" 
d="M357 -10q-135 0 -208 72.5t-73 209.5v443h134v-433q0 -99 34.5 -142t113.5 -43q80 0 117.5 43.5t37.5 150.5v424h134v-435q0 -141 -74.5 -215.5t-215.5 -74.5zM418 768q-26 0 -63 19.5t-49 19.5q-13 0 -23.5 -11.5t-13.5 -28.5h-76q5 61 35.5 96t73.5 35q25 0 62 -20
t51 -20q13 0 23 11t13 29h77q-6 -61 -36.5 -95.5t-73.5 -34.5z" />
    <glyph glyph-name="utilde" unicode="&#x169;" horiz-adv-x="605" 
d="M247 -10q-82 0 -131 49t-49 149v335h121v-321q0 -59 25 -87t78 -28q52 0 87 33t35 92v311h121v-523h-121v82q-21 -41 -63.5 -66.5t-102.5 -25.5zM360 606q-26 0 -62.5 20t-48.5 20q-13 0 -23.5 -11.5t-13.5 -28.5h-75q6 62 35 96.5t72 34.5q25 0 61.5 -19.5t50.5 -19.5
q29 0 36 40h75q-6 -62 -35.5 -97t-71.5 -35z" />
    <glyph glyph-name="Umacron" unicode="&#x16a;" horiz-adv-x="723" 
d="M357 -10q-135 0 -208 72.5t-73 209.5v443h134v-433q0 -99 34.5 -142t113.5 -43q80 0 117.5 43.5t37.5 150.5v424h134v-435q0 -141 -74.5 -215.5t-215.5 -74.5zM216 780v81h288v-81h-288z" />
    <glyph glyph-name="umacron" unicode="&#x16b;" horiz-adv-x="605" 
d="M247 -10q-82 0 -131 49t-49 149v335h121v-321q0 -59 25 -87t78 -28q52 0 87 33t35 92v311h121v-523h-121v82q-21 -41 -63.5 -66.5t-102.5 -25.5zM162 634v78h280v-78h-280z" />
    <glyph glyph-name="Ubreve" unicode="&#x16c;" horiz-adv-x="723" 
d="M357 -10q-135 0 -208 72.5t-73 209.5v443h134v-433q0 -99 34.5 -142t113.5 -43q80 0 117.5 43.5t37.5 150.5v424h134v-435q0 -141 -74.5 -215.5t-215.5 -74.5zM359 761q-62 0 -102 39t-43 101h85q8 -56 60 -56q53 0 63 56h84q-4 -62 -45 -101t-102 -39z" />
    <glyph glyph-name="ubreve" unicode="&#x16d;" horiz-adv-x="605" 
d="M247 -10q-82 0 -131 49t-49 149v335h121v-321q0 -59 25 -87t78 -28q52 0 87 33t35 92v311h121v-523h-121v82q-21 -41 -63.5 -66.5t-102.5 -25.5zM301 606q-62 0 -101.5 39.5t-43.5 103.5h84q8 -58 61 -58q54 0 65 58h82q-4 -64 -45 -103.5t-102 -39.5z" />
    <glyph glyph-name="Uring" unicode="&#x16e;" horiz-adv-x="723" 
d="M357 -10q-135 0 -208 72.5t-73 209.5v443h134v-433q0 -99 34.5 -142t113.5 -43q80 0 117.5 43.5t37.5 150.5v424h134v-435q0 -141 -74.5 -215.5t-215.5 -74.5zM360 787q22 0 36 15.5t14 39.5t-14 39.5t-36 15.5t-36 -15.5t-14 -39.5t14 -39.5t36 -15.5zM360 733
q-46 0 -79 32t-33 77t33 77t79 32t79 -32t33 -77t-33 -77t-79 -32z" />
    <glyph glyph-name="uring" unicode="&#x16f;" horiz-adv-x="605" 
d="M299 616q22 0 36 16t14 39q0 24 -14 39.5t-36 15.5t-36 -15.5t-14 -39.5q0 -23 14 -39t36 -16zM299 563q-46 0 -78.5 32t-32.5 76t32.5 76t78.5 32t78.5 -32t32.5 -76t-32.5 -76t-78.5 -32zM247 -10q-82 0 -131 49t-49 149v335h121v-321q0 -59 25 -87t78 -28q52 0 87 33
t35 92v311h121v-523h-121v82q-21 -41 -63.5 -66.5t-102.5 -25.5z" />
    <glyph glyph-name="Uhungarumlaut" unicode="&#x170;" horiz-adv-x="723" 
d="M226 766l38 135h118l-73 -135h-83zM396 766l38 135h118l-73 -135h-83zM357 -10q-135 0 -208 72.5t-73 209.5v443h134v-433q0 -99 34.5 -142t113.5 -43q80 0 117.5 43.5t37.5 150.5v424h134v-435q0 -141 -74.5 -215.5t-215.5 -74.5z" />
    <glyph glyph-name="uhungarumlaut" unicode="&#x171;" horiz-adv-x="605" 
d="M247 -10q-82 0 -131 49t-49 149v335h121v-321q0 -59 25 -87t78 -28q52 0 87 33t35 92v311h121v-523h-121v82q-21 -41 -63.5 -66.5t-102.5 -25.5zM174 601l41 155h113l-76 -155h-78zM337 601l41 155h113l-76 -155h-78z" />
    <glyph glyph-name="Uogonek" unicode="&#x172;" horiz-adv-x="723" 
d="M398 -182q-50 0 -80 21.5t-30 58.5q0 53 63 92q-132 1 -203.5 73.5t-71.5 208.5v443h134v-433q0 -99 34.5 -142t113.5 -43q80 0 117.5 43.5t37.5 150.5v424h134v-435q0 -197 -142 -262q-74 -34 -92 -53q-17 -18 -17 -40q0 -33 35 -33q25 0 43 9v-69q-30 -14 -76 -14z" />
    <glyph glyph-name="uogonek" unicode="&#x173;" horiz-adv-x="605" 
d="M469 -182q-49 0 -79 21.5t-30 59.5q0 61 82 101h-29v82q-21 -41 -63.5 -66.5t-102.5 -25.5q-82 0 -131 49t-49 149v335h121v-321q0 -59 25 -87t78 -28q52 0 87 33t35 92v311h121v-515q-68 -46 -68 -85q0 -33 35 -33q25 0 43 9v-67q-30 -14 -75 -14z" />
    <glyph glyph-name="Wcircumflex" unicode="&#x174;" horiz-adv-x="955" 
d="M315 766l111 135h104l108 -135h-88l-74 55l-75 -55h-86zM204 0l-178 715h136l124 -525l139 525h110l142 -528l128 528h124l-179 -715h-133l-141 521l-145 -521h-127z" />
    <glyph glyph-name="wcircumflex" unicode="&#x175;" horiz-adv-x="814" 
d="M245 602l114 151h96l111 -151h-86l-75 68l-76 -68h-84zM180 0l-160 523h129l104 -378l111 378h101l102 -378l109 378h118l-164 -523h-123l-97 352l-106 -352h-124z" />
    <glyph glyph-name="Ycircumflex" unicode="&#x176;" horiz-adv-x="629" 
d="M254 0v310l-237 405h147l161 -296l157 296h130l-224 -406v-309h-134zM155 766l111 135h104l108 -135h-88l-74 55l-75 -55h-86z" />
    <glyph glyph-name="ycircumflex" unicode="&#x177;" horiz-adv-x="553" 
d="M130 -179l95 232l-207 470h131l139 -337l128 337h118l-285 -702h-119zM118 602l114 151h96l111 -151h-86l-75 68l-76 -68h-84z" />
    <glyph glyph-name="Ydieresis" unicode="&#x178;" horiz-adv-x="629" 
d="M254 0v310l-237 405h147l161 -296l157 296h130l-224 -406v-309h-134zM211 777q-27 0 -46.5 19t-19.5 46t19.5 46t46.5 19t46.5 -19t19.5 -46t-19.5 -46t-46.5 -19zM422 777q-27 0 -46.5 19t-19.5 46t19.5 46t46.5 19t46.5 -19t19.5 -46t-19.5 -46t-46.5 -19z" />
    <glyph glyph-name="Zacute" unicode="&#x179;" horiz-adv-x="608" 
d="M253 766l54 135h136l-99 -135h-91zM22 0v18l365 592h-328v105h516v-17l-357 -591h347v-107h-543z" />
    <glyph glyph-name="zacute" unicode="&#x17a;" horiz-adv-x="493" 
d="M202 601l59 155h134l-104 -155h-89zM17 0v14l277 413h-250v96h429v-17l-276 -409h268v-97h-448z" />
    <glyph glyph-name="Zdotaccent" unicode="&#x17b;" horiz-adv-x="608" 
d="M22 0v18l365 592h-328v105h516v-17l-357 -591h347v-107h-543zM305 775q-30 0 -50.5 20t-20.5 49t20.5 48.5t50.5 19.5q29 0 50 -20t21 -48t-21 -48.5t-50 -20.5z" />
    <glyph glyph-name="zdotaccent" unicode="&#x17c;" horiz-adv-x="493" 
d="M17 0v14l277 413h-250v96h429v-17l-276 -409h268v-97h-448zM253 611q-30 0 -50.5 20t-20.5 49t20.5 48.5t50.5 19.5q29 0 50 -20t21 -48q0 -29 -21 -49t-50 -20z" />
    <glyph glyph-name="Zcaron" unicode="&#x17d;" horiz-adv-x="608" 
d="M251 766l-108 135h88l75 -55l74 55h86l-110 -135h-105zM22 0v18l365 592h-328v105h516v-17l-357 -591h347v-107h-543z" />
    <glyph glyph-name="zcaron" unicode="&#x17e;" horiz-adv-x="493" 
d="M203 602l-112 151h87l75 -67l75 67h84l-113 -151h-96zM17 0v14l277 413h-250v96h429v-17l-276 -409h268v-97h-448z" />
    <glyph glyph-name="florin" unicode="&#x192;" horiz-adv-x="417" 
d="M27 324v90h94l21 141q25 169 189 169q43 0 72 -11v-95q-23 10 -60 10q-70 0 -82 -82l-20 -132h125v-90h-138l-75 -506h-120l75 506h-81z" />
    <glyph glyph-name="Aringacute" unicode="&#x1fa;" horiz-adv-x="703" 
d="M27 0l239 715h174l236 -715h-138l-57 177h-273l-56 -177h-125zM356 746q-46 0 -79 32t-33 77t33 77t79 32t79 -32t33 -77t-33 -77t-79 -32zM345 606l-106 -332h211zM309 988l54 135h136l-99 -135h-91zM356 800q22 0 36 15.5t14 39.5t-14 39.5t-36 15.5t-36 -15.5
t-14 -39.5t14 -39.5t36 -15.5z" />
    <glyph glyph-name="aringacute" unicode="&#x1fb;" horiz-adv-x="555" 
d="M209 -10q-77 0 -126 38.5t-49 116.5q0 86 73 126t195 40h65v27q0 54 -21.5 79.5t-73.5 25.5q-91 0 -100 -82h-117q7 87 68.5 130t155.5 43q209 0 209 -191v-343h-119v64q-56 -74 -160 -74zM238 77q57 0 93 28.5t36 77.5v52h-62q-151 0 -151 -85q0 -73 84 -73zM280 629
q22 0 36 16t14 39q0 24 -14 39.5t-36 15.5t-36 -15.5t-14 -39.5q0 -23 14 -39t36 -16zM280 576q-46 0 -78.5 32t-32.5 76t32.5 76t78.5 32t78.5 -32t32.5 -76t-32.5 -76t-78.5 -32zM240 828l54 135h136l-99 -135h-91z" />
    <glyph glyph-name="AEacute" unicode="&#x1fc;" horiz-adv-x="971" 
d="M22 0l351 715h543v-105h-312v-196h250v-100h-250v-209h329v-105h-462v183h-232l-87 -183h-130zM444 610l-159 -332h186v332h-27zM559 766l54 135h136l-99 -135h-91z" />
    <glyph glyph-name="aeacute" unicode="&#x1fd;" horiz-adv-x="891" 
d="M620 -10q-135 0 -199 100q-35 -51 -83.5 -75.5t-121.5 -24.5q-81 0 -131.5 38.5t-50.5 116.5q0 87 72.5 128t193.5 41h68v24q0 54 -22.5 79.5t-72.5 25.5q-92 0 -101 -82h-117q7 87 68 130t153 43q122 0 166 -76q65 76 173 76q104 0 172.5 -65.5t68.5 -198.5v-33h-372
q3 -76 37.5 -116.5t99.5 -40.5q102 0 116 80h116q-13 -82 -74 -126t-159 -44zM239 77q57 0 93 28.5t36 77.5v53h-65q-149 0 -149 -84q0 -75 85 -75zM486 314h250q-10 132 -121 132q-52 0 -86.5 -35t-42.5 -97zM404 601l59 155h134l-104 -155h-89z" />
    <glyph glyph-name="Oslashacute" unicode="&#x1fe;" horiz-adv-x="814" 
d="M84 -33l-50 51l91 98q-79 98 -79 237v8q0 157 102 260t260 103q127 0 219 -67l78 84l50 -50l-75 -81q89 -100 89 -246v-8q0 -159 -100 -262.5t-261 -103.5q-137 0 -232 76zM409 97q102 0 162 70.5t60 188.5v8q0 91 -37 154l-336 -364q60 -57 151 -57zM184 354
q0 -82 31 -141l333 359q-56 47 -140 47q-105 0 -164.5 -70t-59.5 -187v-8zM355 766l54 135h136l-99 -135h-91z" />
    <glyph glyph-name="oslashacute" unicode="&#x1ff;" horiz-adv-x="611" 
d="M69 -38l-47 42l73 79q-58 71 -58 173v8q0 120 76 195t193 75q91 0 159 -48l67 73l47 -42l-67 -73q62 -72 62 -177v-8q0 -121 -76 -195t-193 -74q-95 0 -164 50zM306 84q68 0 106.5 46.5t38.5 126.5v8q0 54 -18 93l-222 -241q36 -33 95 -33zM161 258q0 -48 14 -87l220 239
q-38 30 -89 30q-68 0 -106.5 -46.5t-38.5 -127.5v-8zM254 601l59 155h134l-104 -155h-89z" />
    <glyph glyph-name="Scommaaccent" unicode="&#x218;" horiz-adv-x="636" 
d="M283 -225l-71 27l52 165l111 -22zM325 -10q-140 0 -209.5 62t-77.5 170h128q8 -63 42 -97.5t117 -34.5q60 0 97.5 30.5t37.5 79.5q0 50 -31 73t-118 37q-133 18 -192.5 64.5t-59.5 144.5q0 89 69 147t180 58q116 0 183 -52.5t77 -154.5h-122q-10 56 -43 81.5t-95 25.5
q-59 0 -91 -25.5t-32 -68.5q0 -46 29.5 -69t118.5 -36q133 -18 194 -64.5t61 -149.5q0 -95 -73 -158t-190 -63z" />
    <glyph glyph-name="scommaaccent" unicode="&#x219;" horiz-adv-x="494" 
d="M218 -225l-71 27l52 165l111 -22zM251 -10q-101 0 -158 45t-61 128h114q5 -42 29 -63t75 -21q94 0 94 67q0 31 -25.5 46.5t-86.5 25.5q-105 17 -147 51.5t-42 107.5q0 74 58 115.5t138 41.5q188 0 205 -158h-112q-8 36 -29.5 53t-63.5 17q-39 0 -61 -17t-22 -45t23 -42
t85 -25q102 -16 149 -49t47 -111q0 -80 -54.5 -123.5t-154.5 -43.5z" />
    <glyph glyph-name="uni0237" unicode="&#x237;" horiz-adv-x="271" 
d="M3 -188v93q72 5 72 74v544h121v-541q0 -83 -44 -126t-149 -44z" />
    <glyph glyph-name="circumflex" unicode="&#x2c6;" horiz-adv-x="400" 
d="M39 602l114 151h96l111 -151h-86l-75 68l-76 -68h-84z" />
    <glyph glyph-name="caron" unicode="&#x2c7;" horiz-adv-x="400" 
d="M151 602l-112 151h87l75 -67l75 67h84l-113 -151h-96z" />
    <glyph glyph-name="breve" unicode="&#x2d8;" horiz-adv-x="400" 
d="M199 606q-62 0 -101.5 39.5t-43.5 103.5h84q8 -58 61 -58q54 0 65 58h82q-4 -64 -45 -103.5t-102 -39.5z" />
    <glyph glyph-name="dotaccent" unicode="&#x2d9;" horiz-adv-x="400" 
d="M200 611q-30 0 -50.5 20t-20.5 49t20.5 48.5t50.5 19.5q29 0 50 -20t21 -48q0 -29 -21 -49t-50 -20z" />
    <glyph glyph-name="ring" unicode="&#x2da;" horiz-adv-x="400" 
d="M200 643q22 0 36 16t14 39q0 24 -14 39.5t-36 15.5t-36 -15.5t-14 -39.5q0 -23 14 -39t36 -16zM200 590q-46 0 -78.5 32t-32.5 76t32.5 76t78.5 32t78.5 -32t32.5 -76t-32.5 -76t-78.5 -32z" />
    <glyph glyph-name="ogonek" unicode="&#x2db;" horiz-adv-x="400" 
d="M213 -182q-48 0 -78.5 21t-30.5 58q0 63 82 103h82q-58 -40 -58 -77q0 -33 35 -33q25 0 43 9v-67q-30 -14 -75 -14z" />
    <glyph glyph-name="tilde" unicode="&#x2dc;" horiz-adv-x="400" 
d="M258 606q-26 0 -62.5 20t-48.5 20q-13 0 -23.5 -11.5t-13.5 -28.5h-75q6 62 35 96.5t72 34.5q25 0 61.5 -19.5t50.5 -19.5q29 0 36 40h75q-6 -62 -35.5 -97t-71.5 -35z" />
    <glyph glyph-name="hungarumlaut" unicode="&#x2dd;" horiz-adv-x="400" 
d="M80 601l41 155h113l-76 -155h-78zM243 601l41 155h113l-76 -155h-78z" />
    <glyph glyph-name="Wgrave" unicode="&#x1e80;" horiz-adv-x="955" 
d="M441 766l-98 135h136l53 -135h-91zM204 0l-178 715h136l124 -525l139 525h110l142 -528l128 528h124l-179 -715h-133l-141 521l-145 -521h-127z" />
    <glyph glyph-name="wgrave" unicode="&#x1e81;" horiz-adv-x="814" 
d="M180 0l-160 523h129l104 -378l111 378h101l102 -378l109 378h118l-164 -523h-123l-97 352l-106 -352h-124zM376 601l-104 155h134l59 -155h-89z" />
    <glyph glyph-name="Wacute" unicode="&#x1e82;" horiz-adv-x="955" 
d="M436 766l54 135h136l-99 -135h-91zM204 0l-178 715h136l124 -525l139 525h110l142 -528l128 528h124l-179 -715h-133l-141 521l-145 -521h-127z" />
    <glyph glyph-name="wacute" unicode="&#x1e83;" horiz-adv-x="814" 
d="M368 601l59 155h134l-104 -155h-89zM180 0l-160 523h129l104 -378l111 378h101l102 -378l109 378h118l-164 -523h-123l-97 352l-106 -352h-124z" />
    <glyph glyph-name="Wdieresis" unicode="&#x1e84;" horiz-adv-x="955" 
d="M374 777q-27 0 -46.5 19t-19.5 46t19.5 46t46.5 19t46.5 -19t19.5 -46t-19.5 -46t-46.5 -19zM585 777q-27 0 -46.5 19t-19.5 46t19.5 46t46.5 19t46.5 -19t19.5 -46t-19.5 -46t-46.5 -19zM204 0l-178 715h136l124 -525l139 525h110l142 -528l128 528h124l-179 -715h-133
l-141 521l-145 -521h-127z" />
    <glyph glyph-name="wdieresis" unicode="&#x1e85;" horiz-adv-x="814" 
d="M314 613q-27 0 -46.5 19t-19.5 46q0 26 19.5 45.5t46.5 19.5t46.5 -19.5t19.5 -45.5q0 -27 -19.5 -46t-46.5 -19zM512 613q-28 0 -47 19t-19 46q0 26 19 45.5t47 19.5q27 0 46.5 -19.5t19.5 -45.5q0 -27 -19.5 -46t-46.5 -19zM180 0l-160 523h129l104 -378l111 378h101
l102 -378l109 378h118l-164 -523h-123l-97 352l-106 -352h-124z" />
    <glyph glyph-name="Ygrave" unicode="&#x1ef2;" horiz-adv-x="629" 
d="M254 0v310l-237 405h147l161 -296l157 296h130l-224 -406v-309h-134zM285 766l-98 135h136l53 -135h-91z" />
    <glyph glyph-name="ygrave" unicode="&#x1ef3;" horiz-adv-x="553" 
d="M130 -179l95 232l-207 470h131l139 -337l128 337h118l-285 -702h-119zM243 601l-104 155h134l59 -155h-89z" />
    <glyph glyph-name="uni2009" unicode="&#x2009;" horiz-adv-x="101" 
 />
    <glyph glyph-name="endash" unicode="&#x2013;" horiz-adv-x="532" 
d="M45 240v84h441v-84h-441z" />
    <glyph glyph-name="emdash" unicode="&#x2014;" horiz-adv-x="909" 
d="M45 240v84h819v-84h-819z" />
    <glyph glyph-name="quoteleft" unicode="&#x2018;" horiz-adv-x="277" 
d="M146 464l-110 43l125 220l71 -31z" />
    <glyph glyph-name="quoteright" unicode="&#x2019;" horiz-adv-x="277" 
d="M116 464l-71 32l86 231l109 -43z" />
    <glyph glyph-name="quotesinglbase" unicode="&#x201a;" horiz-adv-x="276" 
d="M114 -111l-70 31l85 232l110 -43z" />
    <glyph glyph-name="quotedblleft" unicode="&#x201c;" horiz-adv-x="473" 
d="M146 464l-110 43l125 220l71 -31zM343 464l-110 43l125 220l70 -31z" />
    <glyph glyph-name="quotedblright" unicode="&#x201d;" horiz-adv-x="473" 
d="M116 464l-71 32l86 231l109 -43zM312 464l-70 32l85 231l110 -43z" />
    <glyph glyph-name="quotedblbase" unicode="&#x201e;" horiz-adv-x="473" 
d="M114 -111l-70 31l85 232l110 -43zM311 -111l-71 31l86 232l110 -43z" />
    <glyph glyph-name="dagger" unicode="&#x2020;" horiz-adv-x="386" 
d="M142 213v288h-112v90h112v124h103v-124h111v-90h-111v-288h-103z" />
    <glyph glyph-name="daggerdbl" unicode="&#x2021;" horiz-adv-x="386" 
d="M142 416v96h-112v85h112v118h103v-118h111v-85h-111v-96h111v-85h-111v-118h-103v118h-112v85h112z" />
    <glyph glyph-name="bullet" unicode="&#x2022;" horiz-adv-x="348" 
d="M174 177q-54 0 -91 37t-37 91q0 53 37 90.5t91 37.5q55 0 91.5 -37.5t36.5 -90.5q0 -54 -36.5 -91t-91.5 -37z" />
    <glyph glyph-name="ellipsis" unicode="&#x2026;" horiz-adv-x="840" 
d="M144 -7q-33 0 -56 22.5t-23 55.5t23 56t56 23q34 0 57 -23t23 -56t-23 -55.5t-57 -22.5zM420 -7q-34 0 -56.5 22.5t-22.5 55.5t22.5 56t56.5 23t57 -23t23 -56t-23 -55.5t-57 -22.5zM695 -7q-33 0 -56 22.5t-23 55.5t23 56t56 23q34 0 57.5 -23t23.5 -56t-23.5 -55.5
t-57.5 -22.5z" />
    <glyph glyph-name="perthousand" unicode="&#x2030;" horiz-adv-x="1164" 
d="M201 464q34 0 53.5 24t19.5 66q0 41 -19.5 65t-53.5 24t-54 -24t-20 -66t20 -65.5t54 -23.5zM201 384q-72 0 -121.5 48t-49.5 120q0 73 50 121.5t121 48.5t120.5 -47.5t49.5 -119.5q0 -73 -49 -122t-121 -49zM122 0l460 715h85l-461 -715h-84zM581 70q34 0 53.5 24
t19.5 66q0 41 -19.5 65t-53.5 24q-33 0 -53 -24t-20 -66t19.5 -65.5t53.5 -23.5zM581 -10q-72 0 -121 48t-49 120q0 73 49.5 121.5t120.5 48.5t120.5 -47.5t49.5 -119.5q0 -73 -49 -122t-121 -49zM963 70q35 0 54.5 24t19.5 66q0 41 -20 65t-54 24q-33 0 -53 -24t-20 -66
t19.5 -65.5t53.5 -23.5zM963 -10q-72 0 -121 48t-49 120q0 73 49.5 121.5t120.5 48.5t121 -47.5t50 -119.5q0 -73 -49.5 -122t-121.5 -49z" />
    <glyph glyph-name="uni2032" unicode="&#x2032;" horiz-adv-x="227" 
d="M42 458l23 257h121l-58 -257h-86z" />
    <glyph glyph-name="uni2033" unicode="&#x2033;" horiz-adv-x="409" 
d="M42 458l23 257h121l-58 -257h-86zM224 458l23 257h121l-58 -257h-86z" />
    <glyph glyph-name="guilsinglleft" unicode="&#x2039;" horiz-adv-x="316" 
d="M176 78l-128 183l128 183h97l-123 -183l123 -183h-97z" />
    <glyph glyph-name="guilsinglright" unicode="&#x203a;" horiz-adv-x="316" 
d="M43 78l123 183l-123 183h97l128 -183l-128 -183h-97z" />
    <glyph glyph-name="fraction" unicode="&#x2044;" horiz-adv-x="135" 
d="M-235 0l528 715h77l-528 -715h-77z" />
    <glyph glyph-name="Euro" unicode="&#x20ac;" horiz-adv-x="692" 
d="M28 389v63h69q16 121 91 197t194 76q114 0 182.5 -61t80.5 -174h-125q-8 64 -44 98t-94 34q-66 0 -105 -45t-49 -125h206l-12 -63h-197v-68h184l-11 -63h-170q21 -163 155 -163q125 0 145 145h124q-14 -119 -84 -184.5t-187 -65.5q-120 0 -194.5 73.5t-89.5 194.5h-69v63
h66v68h-66z" />
    <glyph glyph-name="trademark" unicode="&#x2122;" horiz-adv-x="733" 
d="M342 393v322h97l78 -199l77 199h98v-322h-76v224l-91 -224h-25l-91 224v-224h-67zM124 393v262h-92v60h260v-60h-92v-262h-76z" />
    <glyph glyph-name="onethird" unicode="&#x2153;" horiz-adv-x="758" 
d="M584 -6q-71 0 -107.5 32.5t-38.5 87.5h83q5 -53 58 -53q54 0 54 46t-54 46h-28v57h27q52 0 52 43q0 41 -45 41q-48 0 -54 -49h-83q4 52 40.5 83.5t98.5 31.5q61 0 96 -26.5t35 -70.5q0 -57 -61 -77q32 -6 51 -27.5t19 -54.5q0 -51 -37.5 -80.5t-105.5 -29.5zM107 360v265
l-82 -51v78l94 63h82v-355h-94zM50 0l528 715h77l-528 -715h-77z" />
    <glyph glyph-name="twothirds" unicode="&#x2154;" horiz-adv-x="800" 
d="M626 -6q-71 0 -107.5 32.5t-38.5 87.5h83q5 -53 58 -53q54 0 54 46t-54 46h-28v57h27q52 0 52 43q0 41 -45 41q-48 0 -54 -49h-83q4 52 40.5 83.5t98.5 31.5q61 0 96 -26.5t35 -70.5q0 -57 -61 -77q32 -6 51 -27.5t19 -54.5q0 -51 -37.5 -80.5t-105.5 -29.5zM10 360v13
l128 135q59 61 59 99q0 43 -42 43q-45 0 -52 -61h-85q3 63 40.5 97t100.5 34q62 0 95.5 -30t33.5 -79q0 -59 -70 -126l-58 -57h131v-68h-281zM106 0l528 715h77l-528 -715h-77z" />
    <glyph glyph-name="oneeighth" unicode="&#x215b;" horiz-adv-x="751" 
d="M577 -6q-66 0 -106 27.5t-40 78.5q0 66 65 88q-51 21 -51 74q0 45 38.5 71.5t94.5 26.5q57 0 94 -26.5t37 -71.5q0 -52 -52 -73q66 -23 66 -87q0 -51 -40 -79.5t-106 -28.5zM577 59q24 0 39 13.5t15 37.5q0 23 -15 36t-39 13q-23 0 -38.5 -13.5t-15.5 -36.5t15.5 -36.5
t38.5 -13.5zM578 212q20 0 33 12t13 31t-13.5 30.5t-32.5 11.5q-20 0 -33.5 -11.5t-13.5 -31.5q0 -19 14 -30.5t33 -11.5zM107 360v265l-82 -51v78l94 63h82v-355h-94zM47 0l528 715h77l-528 -715h-77z" />
    <glyph glyph-name="threeeighths" unicode="&#x215c;" horiz-adv-x="785" 
d="M611 -6q-66 0 -106 27.5t-40 78.5q0 66 65 88q-51 21 -51 74q0 45 38.5 71.5t94.5 26.5q57 0 94 -26.5t37 -71.5q0 -52 -52 -73q66 -23 66 -87q0 -51 -40 -79.5t-106 -28.5zM611 59q24 0 39 13.5t15 37.5q0 23 -15 36t-39 13q-23 0 -38.5 -13.5t-15.5 -36.5t15.5 -36.5
t38.5 -13.5zM612 212q20 0 33 12t13 31t-13.5 30.5t-32.5 11.5q-20 0 -33.5 -11.5t-13.5 -31.5q0 -19 14 -30.5t33 -11.5zM92 0l528 715h77l-528 -715h-77zM169 354q-71 0 -107.5 32.5t-38.5 87.5h83q5 -54 58 -54q54 0 54 47q0 45 -54 45h-28v58h27q52 0 52 43q0 40 -45 40
q-22 0 -36.5 -12.5t-17.5 -35.5h-83q4 51 40.5 83t98.5 32q61 0 96 -26.5t35 -70.5q0 -57 -61 -77q32 -6 51 -27.5t19 -54.5q0 -51 -37.5 -80.5t-105.5 -29.5z" />
    <glyph glyph-name="fiveeighths" unicode="&#x215d;" horiz-adv-x="775" 
d="M602 -6q-66 0 -106 27.5t-40 78.5q0 66 65 88q-51 21 -51 74q0 45 38.5 71.5t94.5 26.5q57 0 94 -26.5t37 -71.5q0 -52 -52 -73q66 -23 66 -87q0 -51 -40 -79.5t-106 -28.5zM602 59q24 0 39 13.5t15 37.5q0 23 -15 36t-39 13q-23 0 -38.5 -13.5t-15.5 -36.5t15.5 -36.5
t38.5 -13.5zM603 212q20 0 33 12t13 31t-13.5 30.5t-32.5 11.5q-20 0 -33.5 -11.5t-13.5 -31.5q0 -19 14 -30.5t33 -11.5zM162 354q-67 0 -102 31t-37 82h86q7 -44 51 -44q24 0 37 15.5t13 41.5t-13.5 40.5t-37.5 14.5q-39 0 -59 -27h-62l7 207h238v-68h-171l-2 -87
q29 37 84 37q50 0 80 -31t30 -85q0 -59 -38.5 -93t-103.5 -34zM82 0l528 715h77l-528 -715h-77z" />
    <glyph glyph-name="seveneighths" unicode="&#x215e;" horiz-adv-x="746" 
d="M573 -6q-66 0 -106 27.5t-40 78.5q0 66 65 88q-51 21 -51 74q0 45 38.5 71.5t94.5 26.5q57 0 94 -26.5t37 -71.5q0 -52 -52 -73q66 -23 66 -87q0 -51 -40 -79.5t-106 -28.5zM573 59q24 0 39 13.5t15 37.5q0 23 -15 36t-39 13q-23 0 -38.5 -13.5t-15.5 -36.5t15.5 -36.5
t38.5 -13.5zM574 212q20 0 33 12t13 31t-13.5 30.5t-32.5 11.5q-20 0 -33.5 -11.5t-13.5 -31.5q0 -19 14 -30.5t33 -11.5zM68 360l106 281h-153v74h270v-10l-129 -345h-94zM34 0l528 715h77l-528 -715h-77z" />
    <glyph glyph-name="minus" unicode="&#x2212;" horiz-adv-x="540" 
d="M37 293v96h467v-96h-467z" />
    <glyph glyph-name="approxequal" unicode="&#x2248;" horiz-adv-x="530" 
d="M41 148q6 71 39.5 106.5t82.5 35.5q42 0 110.5 -21t90.5 -21q18 0 30.5 11.5t14.5 33.5h79q-4 -69 -37.5 -105.5t-81.5 -36.5q-44 0 -112.5 21.5t-90.5 21.5q-38 0 -46 -46h-79zM41 342q6 71 39.5 106.5t82.5 35.5q42 0 110.5 -21t90.5 -21q18 0 30.5 11.5t14.5 33.5h79
q-4 -69 -37.5 -105.5t-81.5 -36.5q-44 0 -112.5 21.5t-90.5 21.5q-38 0 -46 -46h-79z" />
    <glyph glyph-name="notequal" unicode="&#x2260;" horiz-adv-x="513" 
d="M39 371v92h227l39 100h91l-39 -100h116v-92h-152l-36 -95h188v-91h-223l-39 -101h-91l39 101h-120v91h155l36 95h-191z" />
    <glyph glyph-name="lessequal" unicode="&#x2264;" horiz-adv-x="507" 
d="M447 128l-398 213v26l398 213v-111l-223 -114l223 -115v-112zM49 0v89h398v-89h-398z" />
    <glyph glyph-name="greaterequal" unicode="&#x2265;" horiz-adv-x="507" 
d="M60 128v112l223 115l-223 114v111l399 -213v-26zM60 0v89h399v-89h-399z" />
    <glyph glyph-name="uni24C5" unicode="&#x24c5;" horiz-adv-x="843" 
d="M294 160v399h140q75 0 115 -32.5t40 -95.5v-3q0 -62 -39.5 -93.5t-110.5 -31.5h-49v-143h-96zM390 369h42q66 0 66 59v3q0 55 -66 55h-42v-117zM421 32q132 0 226.5 92.5t94.5 234.5q0 141 -92.5 232.5t-226.5 91.5q-135 0 -228 -92t-93 -234t94 -233.5t225 -91.5z
M421 -13q-156 0 -264.5 106.5t-108.5 263.5q0 155 109 263t266 108q158 0 265.5 -107t107.5 -262q0 -158 -109 -265t-266 -107z" />
    <glyph glyph-name="f_i" unicode="&#xfb01;" horiz-adv-x="628" 
d="M431 0v523h121v-523h-121zM490 609q-30 0 -51 20t-21 49q0 30 21 50t51 20t51 -20t21 -50q0 -29 -21 -49t-51 -20zM93 0v432h-71v91h71v70q0 86 45 131.5t129 45.5q37 0 66 -9v-94q-19 8 -51 8q-68 0 -68 -77v-75h119v-91h-119v-432h-121z" />
    <glyph glyph-name="f_l" unicode="&#xfb02;" horiz-adv-x="628" 
d="M93 0v432h-71v91h71v70q0 86 45 131.5t129 45.5q37 0 66 -9v-94q-19 8 -51 8q-68 0 -68 -77v-75h119v-91h-119v-432h-121zM431 0v765h121v-765h-121z" />
    <glyph glyph-name="space_uni0326" horiz-adv-x="400" 
d="M186 -225l-71 27l52 165l111 -22z" />
    <glyph glyph-name="caron.alt" horiz-adv-x="400" 
d="M170 590l10 175h110l-49 -175h-71z" />
    <glyph glyph-name="space_uni0326.alt" horiz-adv-x="400" 
d="M248 588l-111 22l92 169l70 -26z" />
    <glyph glyph-name="grave.uc" horiz-adv-x="400" 
d="M163 766l-98 135h136l53 -135h-91z" />
    <glyph glyph-name="dieresis.uc" horiz-adv-x="400" 
d="M94 777q-27 0 -46.5 19t-19.5 46t19.5 46t46.5 19t46.5 -19t19.5 -46t-19.5 -46t-46.5 -19zM305 777q-27 0 -46.5 19t-19.5 46t19.5 46t46.5 19t46.5 -19t19.5 -46t-19.5 -46t-46.5 -19z" />
    <glyph glyph-name="macron.uc" horiz-adv-x="400" 
d="M56 780v81h288v-81h-288z" />
    <glyph glyph-name="acute.uc" horiz-adv-x="400" 
d="M146 766l54 135h136l-99 -135h-91z" />
    <glyph glyph-name="circumflex.uc" horiz-adv-x="400" 
d="M38 766l111 135h104l108 -135h-88l-74 55l-75 -55h-86z" />
    <glyph glyph-name="caron.uc" horiz-adv-x="400" 
d="M146 766l-108 135h88l75 -55l74 55h86l-110 -135h-105z" />
    <glyph glyph-name="breve.uc" horiz-adv-x="400" 
d="M199 761q-62 0 -102 39t-43 101h85q8 -56 60 -56q53 0 63 56h84q-4 -62 -45 -101t-102 -39z" />
    <glyph glyph-name="dotaccent.uc" horiz-adv-x="400" 
d="M200 775q-30 0 -50.5 20t-20.5 49t20.5 48.5t50.5 19.5q29 0 50 -20t21 -48t-21 -48.5t-50 -20.5z" />
    <glyph glyph-name="ring.uc" horiz-adv-x="400" 
d="M200 807q22 0 36 15.5t14 39.5t-14 39.5t-36 15.5t-36 -15.5t-14 -39.5t14 -39.5t36 -15.5zM200 753q-46 0 -79 32t-33 77t33 77t79 32t79 -32t33 -77t-33 -77t-79 -32z" />
    <glyph glyph-name="tilde.uc" horiz-adv-x="400" 
d="M258 768q-26 0 -63 19.5t-49 19.5q-13 0 -23.5 -11.5t-13.5 -28.5h-76q5 61 35.5 96t73.5 35q25 0 62 -20t51 -20q13 0 23 11t13 29h77q-6 -61 -36.5 -95.5t-73.5 -34.5z" />
    <glyph glyph-name="hungarumlaut.uc" horiz-adv-x="400" 
d="M74 766l38 135h118l-73 -135h-83zM244 766l38 135h118l-73 -135h-83z" />
    <glyph glyph-name="idotaccent" horiz-adv-x="271" 
d="M134 609q-30 0 -51 20t-21 49q0 30 21 50t51 20t51 -20t21 -50q0 -29 -21 -49t-51 -20zM75 0v523h121v-523h-121z" />
    <glyph glyph-name="registered.alt" horiz-adv-x="843" 
d="M277 161v399h146q74 0 114.5 -30.5t40.5 -91.5v-2q0 -81 -80 -106l103 -169h-99l-92 152h-39v-152h-94zM371 377h48q65 0 65 55v3q0 52 -64 52h-49v-110zM421 32q132 0 226.5 92.5t94.5 234.5q0 141 -92.5 232.5t-226.5 91.5q-135 0 -228 -92t-93 -234t94 -233.5
t225 -91.5zM421 -13q-156 0 -264.5 106.5t-108.5 263.5q0 155 109 263t266 108q158 0 265.5 -107t107.5 -262q0 -158 -109 -265t-266 -107z" />
    <glyph glyph-name="dollar.old" horiz-adv-x="621" 
d="M277 -131v122q-223 16 -241 223h120q7 -55 32.5 -87.5t88.5 -40.5v220q-112 19 -165 64.5t-53 134.5q0 81 60 135t158 61v88h66v-89q196 -19 214 -196h-114q-17 89 -100 103v-200q115 -19 171 -64t56 -138q0 -87 -61 -147t-166 -67v-122h-66zM450 193q0 43 -22.5 65.5
t-84.5 35.5v-208q48 7 77.5 36t29.5 71zM174 515q0 -40 21 -62t82 -35v191q-49 -6 -76 -31.5t-27 -62.5z" />
    <glyph glyph-name="Euro.old" horiz-adv-x="671" 
d="M27 377v61h68q14 118 87 191.5t189 73.5q111 0 177 -59t77 -168h-120q-9 62 -44 95t-91 33q-64 0 -102 -44t-47 -122h200l-12 -61h-191v-65h179l-11 -62h-165q19 -158 151 -158q122 0 141 141h119q-13 -116 -80.5 -179.5t-181.5 -63.5q-116 0 -188 71.5t-87 188.5h-68v62
h65v65h-65z" />
    <glyph glyph-name="sterling.old" horiz-adv-x="607" 
d="M41 295v82h58q-15 58 -15 117q0 94 66.5 151t168.5 57q106 0 165 -54t64 -149h-120q-9 53 -33.5 77.5t-73.5 24.5q-48 0 -78 -30.5t-30 -81.5q0 -52 12 -112h194v-82h-177q10 -52 10 -99q0 -29 -12 -62q20 -5 49 -15.5t50.5 -17t36.5 -6.5q74 0 78 73h113
q-4 -79 -48.5 -128t-121.5 -49q-50 0 -119.5 28.5t-90.5 28.5q-51 0 -57 -48h-101q4 47 29.5 86.5t71.5 52.5q10 27 10 57q0 43 -17 99h-82z" />
    <glyph glyph-name="yen.old" horiz-adv-x="586" 
d="M73 278v61h144l-196 355h139l143 -280l138 280h124l-187 -355h146v-61h-161v-66h161v-61h-161v-151h-129v151h-161v61h161v66h-161z" />
    <glyph glyph-name="zero.old" horiz-adv-x="655" 
d="M329 90q75 0 113.5 52.5t38.5 153.5v30q0 98 -39.5 151t-113.5 53t-114 -52t-40 -151v-32q0 -100 40 -152.5t115 -52.5zM328 -10q-127 0 -205 82.5t-78 220.5v32q0 140 78 222t205 82t204.5 -81t77.5 -220v-31q0 -141 -77 -224t-205 -83z" />
    <glyph glyph-name="one.old" horiz-adv-x="406" 
d="M182 0v493l-148 -100v112l162 114h112v-619h-126z" />
    <glyph glyph-name="two.old" horiz-adv-x="559" 
d="M18 0v23l242 227q62 60 90.5 99t28.5 84t-27.5 71.5t-77.5 26.5q-107 0 -124 -134h-114q7 106 71.5 169t171.5 63q104 0 166 -52.5t62 -137.5q0 -42 -23 -84.5t-50 -71.5t-81 -78l-116 -108h276v-97h-495z" />
    <glyph glyph-name="three.old" horiz-adv-x="604" 
d="M298 -105q-123 0 -191 63t-73 167h117q12 -133 144 -133q68 0 102 32.5t34 89.5q0 116 -133 116h-53v91h49q119 0 119 108q0 48 -27.5 75.5t-80.5 27.5q-56 0 -91 -32t-42 -88h-113q5 94 71.5 155.5t177.5 61.5q106 0 166.5 -54t60.5 -136q0 -113 -113 -157
q137 -36 137 -173q0 -97 -70 -155.5t-191 -58.5z" />
    <glyph glyph-name="four.old" horiz-adv-x="638" 
d="M385 -95v146h-361v42l322 525h164v-477h97v-90h-97v-146h-125zM162 141h224v380z" />
    <glyph glyph-name="five.old" horiz-adv-x="586" 
d="M285 -105q-117 0 -180.5 57.5t-69.5 151.5h118q9 -54 38 -82.5t93 -28.5q60 0 94.5 39.5t34.5 105.5q0 62 -35 100.5t-93 38.5q-94 0 -148 -62h-64l5 404h424v-103h-326l-2 -204q52 57 153 57q95 0 154.5 -62.5t59.5 -168.5q0 -110 -71 -176.5t-185 -66.5z" />
    <glyph glyph-name="six.old" horiz-adv-x="627" 
d="M322 -10q-143 0 -208 88.5t-65 238.5v32q0 179 79.5 277.5t209.5 98.5q97 0 156 -47.5t72 -138.5h-120q-10 43 -36 65t-75 22q-72 0 -113.5 -66t-44.5 -195q54 90 174 90q102 0 166.5 -63t64.5 -164q0 -108 -70.5 -173t-189.5 -65zM322 85q59 0 96 38.5t37 101.5
t-36.5 102t-97.5 39q-60 0 -99 -38t-39 -96q0 -68 38.5 -107.5t100.5 -39.5z" />
    <glyph glyph-name="seven.old" horiz-adv-x="542" 
d="M112 -95l248 610h-334v103h496v-15l-277 -698h-133z" />
    <glyph glyph-name="eight.old" horiz-adv-x="612" 
d="M306 -10q-110 0 -186.5 56t-76.5 154q0 65 38 111.5t101 67.5q-51 20 -81 59t-30 93q0 89 69.5 141.5t166.5 52.5q98 0 166.5 -52.5t68.5 -139.5q0 -106 -112 -153q65 -23 102 -68t37 -108q0 -100 -75.5 -157t-187.5 -57zM307 87q59 0 96.5 33.5t37.5 90.5
q0 56 -37.5 88.5t-95.5 32.5t-97 -32.5t-39 -89.5t39 -90t96 -33zM309 419q49 0 80 29t31 79q0 46 -32 75t-81 29t-81.5 -29t-32.5 -77t33.5 -77t82.5 -29z" />
    <glyph glyph-name="nine.old" horiz-adv-x="627" 
d="M292 -105q-104 0 -166.5 51.5t-74.5 142.5h121q22 -95 125 -95q80 0 115 61.5t38 199.5q-25 -41 -70 -66t-104 -25q-102 0 -166.5 62.5t-64.5 163.5q0 109 70.5 174t189.5 65q143 0 207.5 -89t64.5 -241v-30q0 -182 -72.5 -278t-212.5 -96zM305 253q61 0 99.5 37.5
t38.5 96.5q0 69 -38 108t-100 39q-59 0 -96 -38.5t-37 -100.5q0 -64 36 -103t97 -39z" />
    <glyph glyph-name="dollar.tab" 
d="M269 -135v126q-119 8 -177.5 69.5t-66.5 160.5h120q7 -58 33 -91.5t91 -41.5v226q-113 19 -167 67t-54 140q0 83 61 139t160 63v90h66v-91q96 -8 151.5 -60t64.5 -143h-115q-17 93 -101 107v-206q117 -20 173 -66.5t56 -143.5q0 -89 -61 -150t-168 -69v-126h-66zM444 199
q0 44 -23.5 67.5t-85.5 36.5v-215q50 8 79.5 37.5t29.5 73.5zM164 531q0 -42 22 -64.5t83 -35.5v197q-50 -6 -77.5 -32t-27.5 -65z" />
    <glyph glyph-name="Euro.tab" 
d="M14 389v64h56q7 127 74 199.5t179 72.5q100 0 159 -57.5t68 -168.5h-115q-15 126 -112 126q-122 0 -131 -172h191l-12 -64h-179v-67h167l-12 -63h-155q5 -86 36.5 -126.5t96.5 -40.5q53 0 82.5 33t38.5 104h113q-9 -117 -70.5 -178t-166.5 -61q-112 0 -178.5 70
t-73.5 199h-56v63h56v67h-56z" />
    <glyph glyph-name="sterling.tab" 
d="M43 306v80h57q-16 66 -16 123q0 98 66 156.5t167 58.5q106 0 163.5 -54.5t63.5 -153.5h-116q-9 55 -33.5 80t-74.5 25q-49 0 -79 -31.5t-30 -85.5q0 -58 13 -118h192v-80h-176q10 -66 10 -105q0 -34 -12 -61q19 -5 49 -16.5t51.5 -18t36.5 -6.5q75 0 79 74h109
q-4 -83 -47.5 -132.5t-119.5 -49.5q-50 0 -118.5 29.5t-90.5 29.5q-26 0 -40 -14.5t-16 -35.5h-100q3 49 28 89t71 54q9 25 9 59q0 38 -17 104h-79z" />
    <glyph glyph-name="yen.tab" 
d="M80 286v63h150l-192 366h138l135 -280l129 280h122l-182 -366h152v-63h-162v-67h162v-64h-162v-155h-130v155h-160v64h160v67h-160z" />
    <glyph glyph-name="zero.tab" 
d="M304 95q67 0 95.5 44.5t28.5 149.5v140q0 98 -30.5 145t-95.5 47q-67 0 -98.5 -47.5t-31.5 -149.5v-136q0 -103 32.5 -148t99.5 -45zM301 -10q-120 0 -188.5 76.5t-68.5 220.5v136q0 146 69.5 223.5t187.5 77.5q119 0 187 -75t68 -219v-140q0 -146 -67 -223t-188 -77z
" />
    <glyph glyph-name="one.tab" 
d="M290 0v582l-192 -145v116l199 162h126v-715h-133z" />
    <glyph glyph-name="two.tab" 
d="M35 0v24l259 285q54 62 80.5 110t26.5 97q0 50 -27 78t-75 28q-106 0 -120 -143h-123q7 115 69.5 180t176.5 65q110 0 171 -55t61 -150q0 -65 -37 -128t-107 -134l-153 -152h299v-105h-501z" />
    <glyph glyph-name="three.tab" 
d="M294 -10q-121 0 -188 62t-71 169h119q10 -130 137 -130q130 0 130 115q0 117 -125 117h-55v95h52q117 0 117 104q0 46 -27 73.5t-79 27.5q-55 0 -89.5 -31.5t-39.5 -86.5h-115q4 96 70.5 157.5t174.5 61.5q106 0 167 -54t61 -137q0 -114 -115 -156q63 -15 99 -59t36 -113
q0 -100 -70 -157.5t-189 -57.5z" />
    <glyph glyph-name="four.tab" 
d="M362 0v145h-330v44l293 526h160v-474h79v-96h-79v-145h-123zM162 241h202v370z" />
    <glyph glyph-name="five.tab" 
d="M290 -10q-118 0 -179.5 57t-67.5 159h119q8 -56 36 -84t91 -28q60 0 93 39t33 107q0 63 -34.5 101t-92.5 38q-93 0 -144 -63h-66l5 399h422v-105h-322l-2 -195q53 60 149 60q97 0 156 -63.5t59 -171.5q0 -115 -70 -182.5t-185 -67.5z" />
    <glyph glyph-name="six.tab" 
d="M310 -10q-72 0 -124.5 24t-83 68.5t-45 102t-14.5 129.5v36q0 179 78 276.5t208 97.5q95 0 153 -47t68 -141h-118q-9 44 -34 66t-73 22q-71 0 -113 -64t-44 -187q54 91 170 91q100 0 162 -63t62 -167q0 -111 -68 -177.5t-184 -66.5zM308 90q59 0 95 38.5t36 101.5
q0 64 -36 102.5t-96 38.5t-97.5 -36.5t-37.5 -96.5q0 -70 37.5 -109t98.5 -39z" />
    <glyph glyph-name="seven.tab" 
d="M144 0l241 609h-327v106h494v-16l-273 -699h-135z" />
    <glyph glyph-name="eight.tab" 
d="M301 -10q-109 0 -183.5 56t-74.5 157q0 65 35 111.5t94 69.5q-48 20 -75 58t-27 90q0 88 68.5 140t162.5 52q96 0 163 -52t67 -138q0 -102 -103 -149q62 -23 96 -69t34 -110q0 -102 -73.5 -159t-183.5 -57zM301 92q58 0 94.5 32.5t36.5 89.5t-36.5 89t-92.5 32
q-57 0 -95 -32t-38 -90q0 -57 38 -89t93 -32zM304 423q48 0 78 28t30 75q0 45 -31.5 73.5t-79.5 28.5q-47 0 -78.5 -28t-31.5 -74q0 -47 32.5 -75t80.5 -28z" />
    <glyph glyph-name="nine.tab" 
d="M281 -9q-105 0 -166 50.5t-72 145.5h118q20 -96 120 -96q150 0 153 250q-24 -41 -68.5 -65.5t-102.5 -24.5q-99 0 -162 62.5t-63 167.5q0 110 68 177t184 67q132 0 199.5 -82.5t67.5 -237.5v-56q0 -172 -72 -265t-204 -93zM293 345q60 0 97.5 35.5t37.5 94.5
q0 71 -37.5 111t-98.5 40q-59 0 -95 -38.5t-36 -101.5q0 -64 36 -102.5t96 -38.5z" />
    <glyph glyph-name="cent.tab" 
d="M282 -135v127q-104 10 -168.5 80t-64.5 184v8q0 111 65.5 183.5t167.5 84.5v97h66v-97q85 -7 142.5 -55.5t66.5 -138.5h-115q-13 85 -94 100v-356q42 8 70.5 37t32.5 76h109q-7 -84 -64 -139.5t-148 -63.5v-127h-66zM171 256q0 -73 29 -117t82 -55v353q-51 -12 -81 -57.5
t-30 -115.5v-8z" />
    <glyph glyph-name="percent.tab" horiz-adv-x="800" 
d="M208 461q35 0 55 24.5t20 67.5q0 42 -20 67t-55 25q-34 0 -54 -24.5t-20 -67.5q0 -44 20 -68t54 -24zM208 383q-72 0 -121 48.5t-49 120.5q0 73 49.5 121.5t120.5 48.5t120.5 -48t49.5 -120q0 -74 -49 -122.5t-121 -48.5zM131 0l455 715h84l-455 -715h-84zM592 69
q35 0 54.5 24t19.5 67t-20 67.5t-54 24.5t-54.5 -24t-20.5 -68t20 -67.5t55 -23.5zM592 -10q-72 0 -121 48.5t-49 120.5q0 73 49.5 121.5t120.5 48.5t120.5 -47.5t49.5 -119.5q0 -74 -49 -123t-121 -49z" />
    <glyph glyph-name="perthousand.tab" horiz-adv-x="1000" 
d="M179 467q52 0 52 90q0 91 -52 91q-53 0 -53 -91q0 -90 53 -90zM178 392q-61 0 -101.5 44.5t-40.5 119.5q0 76 41 121t102 45t101.5 -44t40.5 -119q0 -76 -40.5 -121.5t-102.5 -45.5zM74 0l455 715h83l-455 -715h-83zM503 65q53 0 53 91q0 90 -53 90q-52 0 -52 -90
q0 -91 52 -91zM503 -10q-61 0 -101.5 45t-40.5 120q0 76 41 120.5t101 44.5q61 0 102 -43.5t41 -119.5t-40.5 -121.5t-102.5 -45.5zM822 65q52 0 52 91q0 90 -52 90q-53 0 -53 -90q0 -91 53 -91zM821 -10q-61 0 -101.5 45t-40.5 120q0 76 41 120.5t102 44.5t101.5 -43.5
t40.5 -119.5t-40.5 -121.5t-102.5 -45.5z" />
    <glyph glyph-name="plus.tab" 
d="M250 99v195h-180v94h180v195h101v-195h180v-94h-180v-195h-101z" />
    <glyph glyph-name="minus.tab" 
d="M69 293v96h462v-96h-462z" />
    <glyph glyph-name="multiply.tab" 
d="M147 115l-66 66l154 153l-155 154l66 67l154 -155l153 154l67 -66l-154 -154l155 -154l-67 -66l-154 155z" />
    <glyph glyph-name="divide.tab" 
d="M300 71q-32 0 -54 22t-22 53t22 53t54 22t54 -22t22 -53t-22 -53t-54 -22zM67 296v91h467v-91h-467zM300 461q-32 0 -54 22t-22 53q0 32 22 54t54 22t54 -22t22 -54q0 -31 -22 -53t-54 -22z" />
    <glyph glyph-name="equal.tab" 
d="M86 185v91h428v-91h-428zM86 371v92h428v-92h-428z" />
    <glyph glyph-name="less.tab" 
d="M499 81l-407 228v26l407 228v-112l-240 -128l240 -131v-111z" />
    <glyph glyph-name="greater.tab" 
d="M101 81v113l240 128l-240 131v111l407 -229v-25z" />
    <glyph glyph-name="florin.tab" 
d="M101 324v90h112l21 141q25 169 189 169q43 0 73 -11v-95q-25 10 -61 10q-69 0 -82 -82l-20 -132h135v-90h-148l-75 -506h-120l75 506h-99z" />
    <glyph glyph-name="plusminus.tab" 
d="M250 157v175h-183v94h183v176h101v-176h182v-94h-182v-175h-101zM67 0v89h467v-89h-467z" />
    <glyph glyph-name="notequal.tab" 
d="M83 371v92h227l39 100h91l-39 -100h116v-92h-152l-36 -95h188v-91h-223l-39 -101h-91l39 101h-120v91h155l36 95h-191z" />
    <glyph glyph-name="approxequal.tab" 
d="M78 148q5 71 39 106.5t83 35.5q42 0 109 -21t90 -21q17 0 29.5 11.5t15.5 33.5h78q-4 -69 -37.5 -105.5t-81.5 -36.5q-44 0 -111.5 21.5t-89.5 21.5q-38 0 -46 -46h-78zM78 342q5 71 39 106.5t83 35.5q42 0 109 -21t90 -21q17 0 29.5 11.5t15.5 33.5h78
q-4 -69 -37.5 -105.5t-81.5 -36.5q-44 0 -111.5 21.5t-89.5 21.5q-38 0 -46 -46h-78z" />
    <glyph glyph-name="lessequal.tab" 
d="M494 128l-399 213v26l399 213v-111l-223 -114l223 -115v-112zM95 0v89h399v-89h-399z" />
    <glyph glyph-name="greaterequal.tab" 
d="M106 128v112l223 115l-223 114v111l399 -213v-26zM106 0v89h399v-89h-399z" />
    <glyph glyph-name="parenleft.tab" horiz-adv-x="300" 
d="M184 -148q-139 205 -139 461t139 461h100q-124 -209 -124 -461t124 -461h-100z" />
    <glyph glyph-name="parenright.tab" horiz-adv-x="300" 
d="M16 -148q124 209 124 461t-124 461h100q139 -205 139 -461t-139 -461h-100z" />
    <glyph glyph-name="bracketleft.tab" horiz-adv-x="300" 
d="M60 -148v924h212v-86h-98v-752h98v-86h-212z" />
    <glyph glyph-name="bracketright.tab" horiz-adv-x="300" 
d="M28 -148v86h98v752h-98v86h212v-924h-212z" />
    <glyph glyph-name="braceleft.tab" horiz-adv-x="300" 
d="M272 -147q-116 0 -163.5 52t-25.5 166l19 98q8 43 -9.5 69t-70.5 37v82q53 10 70.5 36t9.5 69l-19 98q-23 115 24.5 166.5t164.5 51.5v-84q-55 -2 -74 -29t-7 -98l18 -108q9 -55 -15.5 -88t-82.5 -55q58 -21 82.5 -54.5t15.5 -87.5l-18 -109q-12 -71 7 -98.5t74 -29.5
v-84z" />
    <glyph glyph-name="braceright.tab" horiz-adv-x="300" 
d="M28 -147v84q55 2 74 29.5t7 98.5l-18 109q-9 54 15.5 87.5t82.5 54.5q-58 22 -82.5 55t-15.5 88l18 108q12 71 -7 98t-74 29v84q117 0 164.5 -51.5t24.5 -166.5l-19 -98q-8 -43 9.5 -69t70.5 -36v-82q-53 -11 -70.5 -37t-9.5 -69l19 -98q22 -114 -25.5 -166t-163.5 -52z
" />
    <glyph glyph-name="period.tab" horiz-adv-x="300" 
d="M149 -7q-33 0 -56 22.5t-23 55.5t23 56t56 23q34 0 57.5 -23t23.5 -56t-23.5 -55.5t-57.5 -22.5z" />
    <glyph glyph-name="comma.tab" horiz-adv-x="300" 
d="M106 -123l-75 33l91 237l115 -46z" />
    <glyph glyph-name="colon.tab" horiz-adv-x="300" 
d="M149 -7q-33 0 -56 22.5t-23 55.5t23 56t56 23q34 0 57.5 -23t23.5 -56t-23.5 -55.5t-57.5 -22.5zM149 285q-33 0 -56 23t-23 56t23 55.5t56 22.5q34 0 57.5 -22.5t23.5 -55.5t-23.5 -56t-57.5 -23z" />
    <glyph glyph-name="semicolon.tab" horiz-adv-x="300" 
d="M87 -123l-74 33l91 237l114 -46zM156 285q-33 0 -56 23t-23 56t23 55.5t56 22.5q34 0 57 -22.5t23 -55.5t-23 -56t-57 -23z" />
    <glyph glyph-name="space.tab" horiz-adv-x="300" 
 />
    <glyph glyph-name="dollar.oldtab" 
d="M269 -131v123q-221 16 -237 222h117q7 -55 32.5 -87.5t87.5 -40.5v220q-110 19 -162 64.5t-52 134.5q0 81 59 135t155 61v88h65v-89q94 -8 148.5 -58t63.5 -138h-112q-18 89 -100 103v-200q114 -18 169.5 -63.5t55.5 -138.5q0 -87 -60.5 -147t-164.5 -67v-122h-65z
M441 193q0 43 -22.5 65.5t-84.5 35.5v-208q49 7 78 35.5t29 71.5zM167 515q0 -40 21 -62t81 -35v190q-48 -5 -75 -30.5t-27 -62.5z" />
    <glyph glyph-name="Euro.oldtab" 
d="M31 378v61h54q7 124 72 194t173 70q97 0 154 -55.5t67 -163.5h-112q-15 122 -109 122q-119 0 -127 -167h186l-11 -61h-175v-66h162l-11 -61h-151q5 -83 36 -122.5t93 -39.5q52 0 80.5 32t37.5 101h109q-8 -113 -68 -172.5t-161 -59.5q-109 0 -173.5 68t-71.5 193h-54v61
h54v66h-54z" />
    <glyph glyph-name="sterling.oldtab" 
d="M45 295v83h55q-15 58 -15 115q0 95 66.5 152t165.5 57q102 0 159.5 -53t63.5 -149h-119q-9 53 -31.5 77t-70.5 24t-76 -29.5t-28 -82.5q0 -47 11 -111h185v-83h-169q9 -56 9 -99q0 -33 -11 -61q19 -5 47 -16t48 -17.5t35 -6.5q73 0 77 73h111q-4 -80 -48.5 -128.5
t-118.5 -48.5q-48 0 -114 28.5t-86 28.5q-49 0 -55 -48h-103q4 44 29.5 82.5t67.5 54.5q10 27 10 59q0 35 -17 99h-78z" />
    <glyph glyph-name="yen.oldtab" 
d="M87 283v61h145l-187 350h134l132 -271l126 271h118l-177 -350h148v-61h-158v-66h158v-61h-158v-156h-126v156h-155v61h155v66h-155z" />
    <glyph glyph-name="zero.oldtab" 
d="M302 93q127 0 127 171v94q0 81 -32.5 126t-95.5 45q-64 0 -97 -44.5t-33 -126.5v-95q0 -82 33.5 -126t97.5 -44zM300 -10q-116 0 -185 75t-69 198v94q0 123 70 197.5t184 74.5q115 0 184.5 -73t69.5 -196v-95q0 -125 -68 -200t-186 -75z" />
    <glyph glyph-name="one.oldtab" 
d="M297 0v493l-193 -135v112l206 149h113v-619h-126z" />
    <glyph glyph-name="two.oldtab" 
d="M42 0v23l241 227q60 56 87.5 96.5t27.5 86.5q0 45 -27 71.5t-76 26.5q-104 0 -121 -134h-114q8 107 71 169.5t169 62.5q104 0 165 -52t61 -138q0 -61 -36.5 -111.5t-115.5 -122.5l-116 -108h274v-97h-490z" />
    <glyph glyph-name="three.oldtab" 
d="M294 -105q-121 0 -187.5 63t-70.5 167h116q12 -133 141 -133q67 0 100 32t33 89q0 117 -129 117h-52v91h49q116 0 116 109q0 47 -27 74.5t-80 27.5q-56 0 -90 -31.5t-40 -88.5h-113q5 94 71.5 155.5t173.5 61.5q105 0 164.5 -53.5t59.5 -136.5q0 -116 -110 -157
q63 -16 98.5 -59t35.5 -112q0 -99 -70 -157.5t-189 -58.5z" />
    <glyph glyph-name="four.oldtab" 
d="M358 -95v146h-330v41l290 526h161v-477h86v-90h-86v-146h-121zM154 141h205v377z" />
    <glyph glyph-name="five.oldtab" 
d="M295 -105q-115 0 -176.5 56t-66.5 153h115q8 -55 36.5 -83t90.5 -28q59 0 92.5 39t33.5 106q0 63 -34 101t-91 38q-95 0 -144 -62h-63l5 404h413v-102h-316l-2 -205q51 58 147 58q94 0 152 -62.5t58 -166.5q0 -112 -69.5 -179t-180.5 -67z" />
    <glyph glyph-name="six.oldtab" 
d="M312 -10q-131 0 -195 84.5t-64 228.5v60q0 172 74.5 267t199.5 95q93 0 150.5 -47t68.5 -139h-115q-19 88 -108 88q-69 0 -107.5 -65.5t-40.5 -196.5q56 90 165 90q98 0 157.5 -61t59.5 -164q0 -109 -66.5 -174.5t-178.5 -65.5zM312 86q56 0 91.5 38t35.5 100
q0 65 -35.5 103.5t-92.5 38.5t-94.5 -37t-37.5 -96q0 -69 37.5 -108t95.5 -39z" />
    <glyph glyph-name="seven.oldtab" 
d="M131 -95l251 610h-326v103h492v-15l-284 -698h-133z" />
    <glyph glyph-name="eight.oldtab" 
d="M301 -10q-105 0 -177.5 56t-72.5 154q0 66 35.5 112t95.5 67q-104 42 -104 152q0 89 65.5 141.5t158.5 52.5t157.5 -52.5t64.5 -139.5q0 -108 -106 -153q132 -47 132 -176q0 -100 -71.5 -157t-177.5 -57zM301 87q56 0 91 33t35 90t-35 89.5t-90 32.5t-91.5 -33t-36.5 -90
q0 -56 36.5 -89t90.5 -33zM303 419q47 0 75.5 29t28.5 79q0 46 -30 75.5t-75 29.5q-46 0 -76.5 -29t-30.5 -77q0 -49 31.5 -78t76.5 -29z" />
    <glyph glyph-name="nine.oldtab" 
d="M280 -106q-101 0 -160 51t-70 144h114q21 -97 120 -97q73 0 106 63t35 196q-51 -87 -161 -87q-97 0 -158.5 61.5t-61.5 163.5q0 107 68 173.5t179 66.5q130 0 193 -83t63 -227v-65q0 -175 -67 -267.5t-200 -92.5zM292 253q57 0 93.5 37t36.5 97q0 69 -36.5 108t-94.5 39
q-56 0 -92 -38.5t-36 -100.5q0 -64 36 -103t93 -39z" />
    <glyph glyph-name="zero.num" horiz-adv-x="378" 
d="M190 426q68 0 68 107v11q0 105 -69 105q-68 0 -68 -106v-11q0 -106 69 -106zM188 354q-75 0 -118 47.5t-43 129.5v11q0 82 44.5 130t117.5 48t117.5 -46.5t44.5 -128.5v-11q0 -83 -43.5 -131.5t-119.5 -48.5z" />
    <glyph glyph-name="one.num" horiz-adv-x="253" 
d="M104 360v265l-82 -51v78l94 63h82v-355h-94z" />
    <glyph glyph-name="two.num" horiz-adv-x="313" 
d="M7 360v13l128 135q59 61 59 99q0 43 -42 43q-45 0 -52 -61h-85q3 63 40.5 97t100.5 34q62 0 95.5 -30t33.5 -79q0 -59 -70 -126l-58 -57h131v-68h-281z" />
    <glyph glyph-name="three.num" horiz-adv-x="336" 
d="M166 354q-71 0 -107.5 32.5t-38.5 87.5h83q5 -54 58 -54q54 0 54 47q0 45 -54 45h-28v58h27q52 0 52 43q0 40 -45 40q-22 0 -36.5 -12.5t-17.5 -35.5h-83q4 51 40.5 83t98.5 32q61 0 96 -26.5t35 -70.5q0 -57 -61 -77q32 -6 51 -27.5t19 -54.5q0 -51 -37.5 -80.5
t-105.5 -29.5z" />
    <glyph glyph-name="four.num" horiz-adv-x="347" 
d="M193 360v69h-178v34l154 252h113v-222h46v-64h-46v-69h-89zM104 493h91v157z" />
    <glyph glyph-name="five.num" horiz-adv-x="327" 
d="M159 354q-67 0 -102 31t-37 82h86q7 -44 51 -44q24 0 37 15.5t13 41.5t-13.5 40.5t-37.5 14.5q-39 0 -59 -27h-62l7 207h238v-68h-171l-2 -87q29 37 84 37q50 0 80 -31t30 -85q0 -59 -38.5 -93t-103.5 -34z" />
    <glyph glyph-name="six.num" horiz-adv-x="348" 
d="M181 354q-154 0 -154 172v9q0 87 44.5 136t116.5 49q117 0 128 -102h-85q-7 34 -43 34q-65 0 -68 -104q28 43 86 43q51 0 84.5 -30t33.5 -83q0 -56 -38.5 -90t-104.5 -34zM180 418q24 0 39 16t15 42t-14.5 41.5t-39.5 15.5t-40 -15.5t-15 -39.5q0 -28 15 -44t40 -16z" />
    <glyph glyph-name="seven.num" horiz-adv-x="298" 
d="M65 360l106 281h-153v74h270v-10l-129 -345h-94z" />
    <glyph glyph-name="eight.num" horiz-adv-x="340" 
d="M170 354q-66 0 -106 27.5t-40 77.5q0 67 65 89q-51 21 -51 73q0 46 38.5 72.5t94.5 26.5q57 0 94 -26.5t37 -71.5q0 -52 -52 -73q66 -23 66 -87q0 -51 -40 -79.5t-106 -28.5zM170 419q24 0 39 13.5t15 37.5q0 22 -15 35.5t-39 13.5q-23 0 -38.5 -13.5t-15.5 -36.5
t15.5 -36.5t38.5 -13.5zM171 572q20 0 33 12t13 31t-13.5 30.5t-32.5 11.5q-20 0 -33.5 -11.5t-13.5 -31.5q0 -19 14 -30.5t33 -11.5z" />
    <glyph glyph-name="nine.num" horiz-adv-x="348" 
d="M165 354q-60 0 -95 27t-41 77h86q9 -36 49 -36q63 0 65 102q-27 -41 -83 -41q-54 0 -87.5 29.5t-33.5 83.5q0 56 38.5 90t104.5 34q76 0 115 -45.5t39 -125.5v-14q0 -87 -40.5 -134t-116.5 -47zM168 541q24 0 39.5 15.5t15.5 38.5q0 28 -15 44.5t-40 16.5
q-24 0 -38.5 -16t-14.5 -42t14 -41.5t39 -15.5z" />
    <glyph glyph-name="zero.den" horiz-adv-x="378" 
d="M190 67q68 0 68 106v11q0 105 -69 105q-68 0 -68 -106v-11q0 -105 69 -105zM188 -6q-75 0 -118 47.5t-43 129.5v12q0 82 44.5 129.5t117.5 47.5t117.5 -46.5t44.5 -128.5v-11q0 -82 -43.5 -131t-119.5 -49z" />
    <glyph glyph-name="one.den" horiz-adv-x="254" 
d="M104 0v265l-82 -51v78l94 63h82v-355h-94z" />
    <glyph glyph-name="two.den" horiz-adv-x="313" 
d="M7 0v13l128 135q59 61 59 99q0 43 -42 43q-45 0 -52 -61h-85q3 63 40 97t101 34q62 0 95.5 -30t33.5 -79q0 -59 -70 -126l-58 -57h131v-68h-281z" />
    <glyph glyph-name="three.den" horiz-adv-x="336" 
d="M166 -6q-71 0 -107.5 32.5t-38.5 87.5h83q5 -53 58 -53q54 0 54 46t-54 46h-28v57h27q52 0 52 43q0 41 -45 41q-48 0 -54 -49h-83q4 52 40.5 83.5t98.5 31.5q61 0 96 -26.5t35 -70.5q0 -57 -61 -77q32 -6 51 -27.5t19 -54.5q0 -51 -37.5 -80.5t-105.5 -29.5z" />
    <glyph glyph-name="four.den" horiz-adv-x="348" 
d="M193 0v69h-178v34l154 252h113v-222h46v-64h-46v-69h-89zM104 133h91v157z" />
    <glyph glyph-name="five.den" horiz-adv-x="328" 
d="M159 -6q-67 0 -102 31t-37 82h86q3 -21 14.5 -32t36.5 -11q24 0 37 15t13 42q0 26 -13.5 40.5t-37.5 14.5q-39 0 -59 -27h-62l7 206h238v-68h-171l-2 -87q29 37 84 37q50 0 80 -30.5t30 -85.5q0 -58 -38.5 -92.5t-103.5 -34.5z" />
    <glyph glyph-name="six.den" horiz-adv-x="349" 
d="M181 -6q-154 0 -154 172v10q0 86 44.5 135t116.5 49q117 0 128 -102h-85q-7 34 -43 34q-65 0 -68 -104q28 43 86 43q51 0 84.5 -30t33.5 -83q0 -56 -38.5 -90t-104.5 -34zM180 59q24 0 39 16t15 41q0 26 -14.5 42t-39.5 16q-24 0 -39.5 -16t-15.5 -40q0 -27 15 -43
t40 -16z" />
    <glyph glyph-name="seven.den" horiz-adv-x="298" 
d="M65 0l106 281h-153v74h270v-10l-129 -345h-94z" />
    <glyph glyph-name="eight.den" horiz-adv-x="340" 
d="M170 -6q-66 0 -106 27.5t-40 78.5q0 66 65 88q-51 21 -51 74q0 45 38.5 71.5t94.5 26.5q57 0 94 -26.5t37 -71.5q0 -52 -52 -73q66 -23 66 -87q0 -51 -40 -79.5t-106 -28.5zM170 59q24 0 39 13.5t15 37.5q0 23 -15 36t-39 13q-23 0 -38.5 -13.5t-15.5 -36.5t15.5 -36.5
t38.5 -13.5zM171 212q20 0 33 12t13 31t-13.5 30.5t-32.5 11.5q-20 0 -33.5 -11.5t-13.5 -31.5q0 -19 14 -30.5t33 -11.5z" />
    <glyph glyph-name="nine.den" horiz-adv-x="349" 
d="M165 -6q-60 0 -95 27.5t-41 77.5h86q8 -36 49 -36q63 0 65 102q-28 -42 -83 -42q-54 0 -87.5 29.5t-33.5 83.5q0 57 38.5 91t104.5 34q76 0 115 -45.5t39 -125.5v-15q0 -87 -40.5 -134t-116.5 -47zM168 181q24 0 39.5 15.5t15.5 38.5q0 28 -15 44.5t-40 16.5
q-24 0 -38.5 -16t-14.5 -42q0 -25 14.5 -41t38.5 -16z" />
    <glyph glyph-name="zero.sub" horiz-adv-x="378" 
d="M190 -33q68 0 68 107v11q0 105 -69 105q-68 0 -68 -106v-11q0 -106 69 -106zM188 -105q-75 0 -118 47.5t-43 129.5v11q0 82 44.5 130t117.5 48t117.5 -46.5t44.5 -128.5v-11q0 -83 -43.5 -131.5t-119.5 -48.5z" />
    <glyph glyph-name="one.sub" horiz-adv-x="254" 
d="M104 -100v265l-82 -51v78l94 63h82v-355h-94z" />
    <glyph glyph-name="two.sub" horiz-adv-x="313" 
d="M7 -99v13l128 135q59 61 59 99q0 43 -42 43q-45 0 -52 -61h-85q3 63 40.5 97t100.5 34q62 0 95.5 -30t33.5 -79q0 -59 -70 -126l-58 -57h131v-68h-281z" />
    <glyph glyph-name="three.sub" horiz-adv-x="336" 
d="M166 -105q-71 0 -107.5 32.5t-38.5 87.5h83q5 -54 58 -54q54 0 54 47q0 45 -54 45h-28v58h27q52 0 52 43q0 40 -45 40q-22 0 -36.5 -12.5t-17.5 -35.5h-83q4 51 40.5 83t98.5 32q61 0 96 -26.5t35 -70.5q0 -57 -61 -77q32 -6 51 -27.5t19 -54.5q0 -51 -37.5 -80.5
t-105.5 -29.5z" />
    <glyph glyph-name="four.sub" horiz-adv-x="348" 
d="M193 -99v69h-178v34l154 252h113v-222h46v-64h-46v-69h-89zM104 34h91v157z" />
    <glyph glyph-name="five.sub" horiz-adv-x="328" 
d="M159 -105q-67 0 -102 31t-37 82h86q7 -44 51 -44q24 0 37 15.5t13 41.5t-13.5 40.5t-37.5 14.5q-39 0 -59 -27h-62l7 207h238v-68h-171l-2 -87q29 37 84 37q50 0 80 -31t30 -85q0 -59 -38.5 -93t-103.5 -34z" />
    <glyph glyph-name="six.sub" horiz-adv-x="349" 
d="M181 -105q-154 0 -154 172v9q0 87 44.5 136t116.5 49q117 0 128 -102h-85q-7 34 -43 34q-65 0 -68 -104q28 43 86 43q51 0 84.5 -30t33.5 -83q0 -56 -38.5 -90t-104.5 -34zM180 -41q24 0 39 16t15 42t-14.5 41.5t-39.5 15.5t-40 -15.5t-15 -39.5q0 -28 15 -44t40 -16z
" />
    <glyph glyph-name="seven.sub" horiz-adv-x="298" 
d="M65 -99l106 281h-153v74h270v-10l-129 -345h-94z" />
    <glyph glyph-name="eight.sub" horiz-adv-x="340" 
d="M170 -105q-66 0 -106 27.5t-40 77.5q0 67 65 89q-51 21 -51 73q0 46 38.5 72.5t94.5 26.5q57 0 94 -26.5t37 -71.5q0 -52 -52 -73q66 -23 66 -87q0 -51 -40 -79.5t-106 -28.5zM170 -40q24 0 39 13.5t15 37.5q0 22 -15 35.5t-39 13.5q-23 0 -38.5 -13.5t-15.5 -36.5
t15.5 -36.5t38.5 -13.5zM171 113q20 0 33 12t13 31t-13.5 30.5t-32.5 11.5q-20 0 -33.5 -11.5t-13.5 -31.5q0 -19 14 -30.5t33 -11.5z" />
    <glyph glyph-name="nine.sub" horiz-adv-x="349" 
d="M165 -105q-60 0 -95 27t-41 77h86q9 -36 49 -36q63 0 65 102q-27 -41 -83 -41q-54 0 -87.5 29.5t-33.5 83.5q0 56 38.5 90t104.5 34q76 0 115 -45.5t39 -125.5v-14q0 -87 -40.5 -134t-116.5 -47zM168 82q24 0 39.5 15t15.5 39q0 28 -15 44.5t-40 16.5q-24 0 -38.5 -16
t-14.5 -42t14 -41.5t39 -15.5z" />
    <glyph glyph-name="plus.sub" horiz-adv-x="346" 
d="M138 -58v103h-99v68h99v104h70v-104h100v-68h-100v-103h-70z" />
    <glyph glyph-name="minus.sub" horiz-adv-x="346" 
d="M39 45v68h269v-68h-269z" />
    <glyph glyph-name="zero.sup" horiz-adv-x="378" 
d="M190 484q68 0 68 107v11q0 105 -69 105q-68 0 -68 -106v-11q0 -106 69 -106zM188 412q-75 0 -118 47.5t-43 129.5v11q0 82 44.5 130t117.5 48t117.5 -46.5t44.5 -128.5v-11q0 -83 -43.5 -131.5t-119.5 -48.5z" />
    <glyph glyph-name="one.sup" horiz-adv-x="254" 
d="M104 418v265l-82 -51v78l94 63h82v-355h-94z" />
    <glyph glyph-name="two.sup" horiz-adv-x="313" 
d="M7 418v13l128 135q59 61 59 99q0 43 -42 43q-45 0 -52 -61h-85q3 63 40.5 97t100.5 34q62 0 95.5 -30t33.5 -79q0 -59 -70 -126l-58 -57h131v-68h-281z" />
    <glyph glyph-name="three.sup" horiz-adv-x="336" 
d="M166 412q-71 0 -107.5 32.5t-38.5 87.5h83q5 -54 58 -54q54 0 54 47q0 45 -54 45h-28v58h27q52 0 52 43q0 40 -45 40q-22 0 -36.5 -12.5t-17.5 -35.5h-83q4 51 40.5 83t98.5 32q61 0 96 -26.5t35 -70.5q0 -57 -61 -77q32 -6 51 -27.5t19 -54.5q0 -51 -37.5 -80.5
t-105.5 -29.5z" />
    <glyph glyph-name="four.sup" horiz-adv-x="348" 
d="M193 418v69h-178v34l154 252h113v-222h46v-64h-46v-69h-89zM104 551h91v157z" />
    <glyph glyph-name="five.sup" horiz-adv-x="328" 
d="M159 412q-67 0 -102 31t-37 82h86q7 -44 51 -44q24 0 37 15.5t13 41.5t-13.5 40.5t-37.5 14.5q-39 0 -59 -27h-62l7 207h238v-68h-171l-2 -87q29 37 84 37q50 0 80 -31t30 -85q0 -59 -38.5 -93t-103.5 -34z" />
    <glyph glyph-name="six.sup" horiz-adv-x="349" 
d="M181 412q-154 0 -154 172v9q0 87 44.5 136t116.5 49q117 0 128 -102h-85q-7 34 -43 34q-65 0 -68 -104q28 43 86 43q51 0 84.5 -30t33.5 -83q0 -56 -38.5 -90t-104.5 -34zM180 476q24 0 39 16t15 42t-14.5 41.5t-39.5 15.5t-40 -15.5t-15 -39.5q0 -28 15 -44t40 -16z" />
    <glyph glyph-name="seven.sup" horiz-adv-x="298" 
d="M65 418l106 281h-153v74h270v-10l-129 -345h-94z" />
    <glyph glyph-name="eight.sup" horiz-adv-x="340" 
d="M170 412q-66 0 -106 27.5t-40 77.5q0 67 65 89q-51 21 -51 73q0 46 38.5 72.5t94.5 26.5q57 0 94 -26.5t37 -71.5q0 -52 -52 -73q66 -23 66 -87q0 -51 -40 -79.5t-106 -28.5zM170 477q24 0 39 13.5t15 37.5q0 22 -15 35.5t-39 13.5q-23 0 -38.5 -13.5t-15.5 -36.5
t15.5 -36.5t38.5 -13.5zM171 630q20 0 33 12t13 31t-13.5 30.5t-32.5 11.5q-20 0 -33.5 -11.5t-13.5 -31.5q0 -19 14 -30.5t33 -11.5z" />
    <glyph glyph-name="nine.sup" horiz-adv-x="349" 
d="M165 412q-60 0 -95 27t-41 77h86q9 -36 49 -36q63 0 65 102q-27 -41 -83 -41q-54 0 -87.5 29.5t-33.5 83.5q0 56 38.5 90t104.5 34q76 0 115 -45.5t39 -125.5v-14q0 -87 -40.5 -134t-116.5 -47zM168 599q24 0 39.5 15.5t15.5 38.5q0 28 -15 44.5t-40 16.5
q-24 0 -38.5 -16t-14.5 -42t14 -41.5t39 -15.5z" />
    <glyph glyph-name="plus.sup" horiz-adv-x="346" 
d="M138 460v102h-99v69h99v103h70v-103h100v-69h-100v-102h-70z" />
    <glyph glyph-name="minus.sup" horiz-adv-x="346" 
d="M39 562v69h269v-69h-269z" />
    <glyph glyph-name="a.alt" horiz-adv-x="623" 
d="M264 -10q-96 0 -161 70t-65 193v8q0 122 67 197.5t164 75.5q109 0 161 -90v79h121v-523h-121v86q-23 -40 -68.5 -68t-97.5 -28zM293 86q62 0 101.5 44.5t39.5 128.5v8q0 85 -36 128.5t-99 43.5t-100 -46t-37 -129v-8q0 -83 36.5 -126.5t94.5 -43.5z" />
    <glyph glyph-name="t.alt" horiz-adv-x="354" 
d="M100 0v432h-78v91h78v115h121v-115h107v-91h-107v-432h-121z" />
    <glyph glyph-name="germandbls.alt" horiz-adv-x="645" 
d="M431 -9q-84 0 -133.5 42t-51.5 115h109q5 -69 72 -69q68 0 68 70q0 16 -6 29t-22 25t-27 19t-38 21q-27 15 -44 26t-37 28.5t-30 39.5t-10 48q0 32 20.5 63.5t45.5 52.5t45.5 48t20.5 51q0 77 -96 77q-59 0 -91.5 -34t-32.5 -100v-543h-121v540q0 106 69 168.5t177 62.5
q94 0 153.5 -42.5t59.5 -116.5q0 -40 -21.5 -74t-46.5 -53.5t-46.5 -42t-21.5 -42.5q0 -5 1.5 -9.5t6 -9.5t9.5 -9t15 -10l18 -11l23.5 -14l28.5 -16q117 -69 117 -163q0 -80 -50 -123.5t-133 -43.5z" />
    <glyph glyph-name="aacute.alt" horiz-adv-x="623" 
d="M257 601l59 155h134l-104 -155h-89zM264 -10q-96 0 -161 70t-65 193v8q0 122 67 197.5t164 75.5q109 0 161 -90v79h121v-523h-121v86q-23 -40 -68.5 -68t-97.5 -28zM293 86q62 0 101.5 44.5t39.5 128.5v8q0 85 -36 128.5t-99 43.5t-100 -46t-37 -129v-8
q0 -83 36.5 -126.5t94.5 -43.5z" />
    <glyph glyph-name="abreve.alt" horiz-adv-x="623" 
d="M264 -10q-96 0 -161 70t-65 193v8q0 122 67 197.5t164 75.5q109 0 161 -90v79h121v-523h-121v86q-23 -40 -68.5 -68t-97.5 -28zM293 86q62 0 101.5 44.5t39.5 128.5v8q0 85 -36 128.5t-99 43.5t-100 -46t-37 -129v-8q0 -83 36.5 -126.5t94.5 -43.5zM307 606
q-62 0 -101.5 39.5t-43.5 103.5h84q8 -58 61 -58q54 0 65 58h82q-4 -64 -45 -103.5t-102 -39.5z" />
    <glyph glyph-name="acircumflex.alt" horiz-adv-x="623" 
d="M147 602l114 151h96l111 -151h-86l-75 68l-76 -68h-84zM264 -10q-96 0 -161 70t-65 193v8q0 122 67 197.5t164 75.5q109 0 161 -90v79h121v-523h-121v86q-23 -40 -68.5 -68t-97.5 -28zM293 86q62 0 101.5 44.5t39.5 128.5v8q0 85 -36 128.5t-99 43.5t-100 -46t-37 -129
v-8q0 -83 36.5 -126.5t94.5 -43.5z" />
    <glyph glyph-name="adieresis.alt" horiz-adv-x="623" 
d="M211 613q-27 0 -46.5 19t-19.5 46q0 26 19.5 45.5t46.5 19.5t46.5 -19.5t19.5 -45.5q0 -27 -19.5 -46t-46.5 -19zM409 613q-28 0 -47 19t-19 46q0 26 19.5 45.5t46.5 19.5t46.5 -19.5t19.5 -45.5q0 -27 -19.5 -46t-46.5 -19zM264 -10q-96 0 -161 70t-65 193v8
q0 122 67 197.5t164 75.5q109 0 161 -90v79h121v-523h-121v86q-23 -40 -68.5 -68t-97.5 -28zM293 86q62 0 101.5 44.5t39.5 128.5v8q0 85 -36 128.5t-99 43.5t-100 -46t-37 -129v-8q0 -83 36.5 -126.5t94.5 -43.5z" />
    <glyph glyph-name="agrave.alt" horiz-adv-x="623" 
d="M264 -10q-96 0 -161 70t-65 193v8q0 122 67 197.5t164 75.5q109 0 161 -90v79h121v-523h-121v86q-23 -40 -68.5 -68t-97.5 -28zM293 86q62 0 101.5 44.5t39.5 128.5v8q0 85 -36 128.5t-99 43.5t-100 -46t-37 -129v-8q0 -83 36.5 -126.5t94.5 -43.5zM270 601l-104 155h134
l59 -155h-89z" />
    <glyph glyph-name="amacron.alt" horiz-adv-x="623" 
d="M264 -10q-96 0 -161 70t-65 193v8q0 122 67 197.5t164 75.5q109 0 161 -90v79h121v-523h-121v86q-23 -40 -68.5 -68t-97.5 -28zM293 86q62 0 101.5 44.5t39.5 128.5v8q0 85 -36 128.5t-99 43.5t-100 -46t-37 -129v-8q0 -83 36.5 -126.5t94.5 -43.5zM168 634v78h280v-78
h-280z" />
    <glyph glyph-name="aogonek.alt" horiz-adv-x="623" 
d="M486 -182q-50 0 -79.5 21.5t-29.5 59.5q0 61 81 101h-28v86q-23 -40 -68.5 -68t-97.5 -28q-96 0 -161 70t-65 193v8q0 122 67 197.5t164 75.5q109 0 161 -90v79h121v-515q-69 -45 -69 -85q0 -33 35 -33q25 0 43 9v-67q-30 -14 -74 -14zM293 86q62 0 101.5 44.5
t39.5 128.5v8q0 85 -36 128.5t-99 43.5t-100 -46t-37 -129v-8q0 -83 36.5 -126.5t94.5 -43.5z" />
    <glyph glyph-name="aring.alt" horiz-adv-x="623" 
d="M304 643q22 0 36 16t14 39q0 24 -14 39.5t-36 15.5t-36 -15.5t-14 -39.5q0 -23 14 -39t36 -16zM304 590q-46 0 -78.5 32t-32.5 76t32.5 76t78.5 32t78.5 -32t32.5 -76t-32.5 -76t-78.5 -32zM264 -10q-96 0 -161 70t-65 193v8q0 122 67 197.5t164 75.5q109 0 161 -90v79
h121v-523h-121v86q-23 -40 -68.5 -68t-97.5 -28zM293 86q62 0 101.5 44.5t39.5 128.5v8q0 85 -36 128.5t-99 43.5t-100 -46t-37 -129v-8q0 -83 36.5 -126.5t94.5 -43.5z" />
    <glyph glyph-name="aringacute.alt" horiz-adv-x="623" 
d="M304 629q22 0 36 16t14 39q0 24 -14 39.5t-36 15.5t-36 -15.5t-14 -39.5q0 -23 14 -39t36 -16zM304 576q-46 0 -78.5 32t-32.5 76t32.5 76t78.5 32t78.5 -32t32.5 -76t-32.5 -76t-78.5 -32zM264 -10q-96 0 -161 70t-65 193v8q0 122 67 197.5t164 75.5q109 0 161 -90v79
h121v-523h-121v86q-23 -40 -68.5 -68t-97.5 -28zM293 86q62 0 101.5 44.5t39.5 128.5v8q0 85 -36 128.5t-99 43.5t-100 -46t-37 -129v-8q0 -83 36.5 -126.5t94.5 -43.5zM264 828l54 135h136l-99 -135h-91z" />
    <glyph glyph-name="atilde.alt" horiz-adv-x="623" 
d="M264 -10q-96 0 -161 70t-65 193v8q0 122 67 197.5t164 75.5q109 0 161 -90v79h121v-523h-121v86q-23 -40 -68.5 -68t-97.5 -28zM293 86q62 0 101.5 44.5t39.5 128.5v8q0 85 -36 128.5t-99 43.5t-100 -46t-37 -129v-8q0 -83 36.5 -126.5t94.5 -43.5zM365 606
q-26 0 -62.5 20t-48.5 20q-13 0 -23.5 -11.5t-13.5 -28.5h-75q6 62 35 96.5t72 34.5q25 0 61.5 -19.5t50.5 -19.5q29 0 36 40h75q-6 -62 -35.5 -97t-71.5 -35z" />
    <glyph glyph-name="tbar.alt" horiz-adv-x="354" 
d="M22 261v75h78v96h-78v91h78v115h121v-115h107v-91h-107v-96h107v-75h-107v-261h-121v261h-78z" />
    <glyph glyph-name="tcaron.alt" horiz-adv-x="354" 
d="M100 0v432h-78v91h78v115h121v-115h107v-91h-107v-432h-121zM276 590l10 175h110l-49 -175h-71z" />
    <glyph glyph-name="tcommaaccent.alt" horiz-adv-x="354" 
d="M134 -225l-71 27l52 165l111 -22zM100 0v432h-78v91h78v115h121v-115h107v-91h-107v-432h-121z" />
    <glyph glyph-name="f.short" horiz-adv-x="349" 
d="M93 0v432h-71v91h71v70q0 86 45 131.5t129 45.5q37 0 66 -9v-94q-19 8 -51 8q-68 0 -68 -77v-75h119v-91h-119v-432h-121z" />
    <glyph glyph-name="f_f.short" horiz-adv-x="654" 
d="M93 0v432h-71v91h71v63q0 86 45.5 131.5t129.5 45.5q38 0 69 -10v-94q-28 10 -54 10q-69 0 -69 -77v-69h184v70q0 86 45 131.5t129 45.5q38 0 66 -9v-94q-20 8 -51 8q-68 0 -68 -77v-75h119v-91h-119v-432h-121v432h-184v-432h-121z" />
    <glyph glyph-name="questiondown.uc" horiz-adv-x="516" 
d="M340 500v-38q0 -37 -17.5 -72t-33 -52.5t-49.5 -50.5q-24 -23 -36.5 -37t-23 -35t-10.5 -41q0 -84 88 -84q47 0 77 30.5t35 82.5h116q-4 -98 -68 -155.5t-166 -57.5q-103 0 -156.5 49t-53.5 126q0 48 22.5 83.5t65.5 77.5q2 2 15.5 14.5t16 15.5t13.5 14t14.5 15.5
l11.5 14.5t11 16.5t8 16t6.5 18t2.5 17.5v32h111zM286 722q34 0 57.5 -22.5t23.5 -54.5q0 -33 -23.5 -55.5t-57.5 -22.5q-33 0 -57 22.5t-24 55.5q0 32 24 54.5t57 22.5z" />
    <glyph glyph-name="exclamdown.uc" horiz-adv-x="306" 
d="M85 0l19 500h97l19 -500h-135zM153 567q-33 0 -57 22.5t-24 55.5q0 32 24 54.5t57 22.5t57 -22.5t24 -54.5q0 -33 -24 -55.5t-57 -22.5z" />
    <glyph glyph-name="hyphen.uc" horiz-adv-x="380" 
d="M56 275v103h268v-103h-268z" />
    <glyph glyph-name="endash.uc" horiz-adv-x="532" 
d="M45 285v84h441v-84h-441z" />
    <glyph glyph-name="emdash.uc" horiz-adv-x="909" 
d="M45 285v84h819v-84h-819z" />
    <glyph glyph-name="guilsinglleft.uc" horiz-adv-x="316" 
d="M176 110l-128 191l128 191h97l-123 -191l123 -191h-97z" />
    <glyph glyph-name="guilsinglright.uc" horiz-adv-x="316" 
d="M43 110l123 191l-123 191h97l128 -191l-128 -191h-97z" />
    <glyph glyph-name="guillemotleft.uc" horiz-adv-x="492" 
d="M176 110l-128 191l128 191h95l-123 -191l123 -191h-95zM355 110l-128 191l128 191h95l-123 -191l123 -191h-95z" />
    <glyph glyph-name="guillemotright.uc" horiz-adv-x="492" 
d="M43 110l123 191l-123 191h95l128 -191l-128 -191h-95zM221 110l123 191l-123 191h95l128 -191l-128 -191h-95z" />
    <glyph glyph-name="parenleft.uc" horiz-adv-x="335" 
d="M214 -98q-71 84 -117.5 196.5t-46.5 244.5q0 131 47 244.5t117 196.5h105q-65 -88 -107 -201.5t-42 -239.5q0 -240 149 -441h-105z" />
    <glyph glyph-name="parenright.uc" horiz-adv-x="335" 
d="M17 -98q148 203 148 441t-148 441h104q71 -84 117.5 -196.5t46.5 -244.5q0 -131 -47 -244.5t-117 -196.5h-104z" />
    <glyph glyph-name="bracketleft.uc" horiz-adv-x="377" 
d="M79 -88v868h256v-91h-134v-685h134v-92h-256z" />
    <glyph glyph-name="bracketright.uc" horiz-adv-x="377" 
d="M42 -88v92h134v685h-134v91h256v-868h-256z" />
    <glyph glyph-name="braceleft.uc" horiz-adv-x="396" 
d="M354 -90q-129 0 -185 48t-39 157l12 84q8 46 -16.5 74.5t-89.5 28.5v87q65 0 89.5 29t16.5 74l-12 84q-17 110 38.5 157.5t185.5 47.5v-90q-68 -2 -92 -25t-15 -89l12 -98q13 -106 -100 -133q113 -26 100 -133l-12 -98q-9 -66 15 -89.5t92 -25.5v-90z" />
    <glyph glyph-name="braceright.uc" horiz-adv-x="396" 
d="M42 -90v90q68 2 91.5 25.5t14.5 89.5l-12 98q-7 53 20 87t80 46q-113 28 -100 133l12 98q9 66 -14.5 89t-91.5 25v90q129 0 185 -47.5t39 -157.5l-13 -84q-7 -45 17.5 -74t88.5 -29v-87q-64 0 -88.5 -28.5t-17.5 -74.5l13 -84q16 -109 -39.5 -157t-184.5 -48z" />
    <glyph glyph-name="slash.uc" horiz-adv-x="415" 
d="M13 -84l282 861h103l-283 -861h-102z" />
    <glyph glyph-name="backslash.uc" horiz-adv-x="415" 
d="M299 -84l-281 861h102l281 -861h-102z" />
    <glyph glyph-name="bar.uc" horiz-adv-x="259" 
d="M84 -84v861h90v-861h-90z" />
    <glyph glyph-name="at.uc" horiz-adv-x="917" 
d="M460 -67q-190 0 -301.5 115.5t-111.5 283.5q0 120 59 218t156 151t211 53q174 0 285.5 -100.5t111.5 -256.5q0 -67 -17.5 -118.5t-47 -80.5t-62.5 -43t-69 -14q-108 0 -124 82q-21 -39 -58 -63t-82 -24q-72 0 -115 46.5t-43 127.5q0 99 55.5 163.5t136.5 64.5
q87 0 114 -63l7 55h108l-31 -254q-9 -72 44 -72q45 0 76.5 48.5t31.5 144.5q0 131 -86 210t-234 79q-151 0 -248.5 -97.5t-97.5 -256.5q0 -143 86.5 -237t246.5 -94q147 0 237 80h83q-43 -67 -129 -107.5t-192 -40.5zM439 219q43 0 75 39t32 103q0 45 -22.5 69t-64.5 24
t-69.5 -38t-27.5 -102q0 -43 21 -69t56 -26z" />
    <glyph glyph-name="NULL" horiz-adv-x="0" 
 />
    <glyph glyph-name="CR" horiz-adv-x="238" 
 />
    </font>
</defs>
</svg>
